Loading...
Error

Скачать Остров / The Island (Майкл Ритчи) [1980, боевик, триллер, драма, приключения, BDRip-AVC] [MVO] торрент без регистрации

 
Статистика раздачи
Размер:  1,45 GB   |    Скачан:  103 раза
Сидов:  1  [  0 KB/s  ]  
 
Автор Сообщение

leon030982

[] 

Остров / The Island (1980) BDRip-AVC

Информация о фильме
Название: Остров
Оригинальное название: The Island
Год выхода: 1980
Жанр: боевик, триллер, драма, приключения
Режиссер: Майкл Ритчи

В ролях: Майкл Кейн, Дэвид Уорнер, Анджела Панч МакГрегор, Фрэнк Миддлмэсс, Дон Хендерсон, Дадли Саттон, Колин Дживонс, Закес Мокае, Брэд Салливан, Джеффри Фрэнк

О фильме: Репортер Блэйр Мэйнард упрашивает своего издателя отправить его в окрестности Флориды, где таинственным образом исчезают суда. Но кто бы мог подумать, что обычное журналистское расследование обернется самым сенсационным открытием века?!

Выясняется, что причиной страшных исчезновений яхт оказывается не пресловутый Бермудский Треугольник, а настоящие пираты! Карибский бассейн всегда был знаменитой «пиратской вотчиной», но представить себе, что где-то на бескрайних просторах моряобитает община пиратов, понятия не имеющая, что на дворе двадцатое столетие, было просто невозможно! Но, к сожалению, это оказалось невероятной правдой.

Лодка журналиста была взята «на абордаж», а ее пассажиры, Блэйр и его сын Джастин, стали добычей букканиров из семнадцатого века! Теперь посмотрим: сможет ли изнеженный цивилизацией газетчик противостоять свирепым пиратам?!



Страна: США
Продолжительность: 01:54:12
Перевод: Профессиональный (многоголосый закадровый) Первый канал

Файл
Кодек: x.264
Качество: BDRip-AVC
Видео: 1024x432 (2,40:1), 23,976 fps, 1629 kbps, 0.154 bit/pixel
Звук: 48 kHz, AC3 Dolby Digital, 2 ch, ~192.00 kbps
Субтитры: Английские (отключаемые)

&
Общее
Уникальный идентификатор : 183565022807087295921774376411039079978 (0x8A195660EFACF712ACFCA6FB86911E2A)
Полное имя : D:The Island.1980.BDRip-AVC.mkv
Формат : Matroska
Версия формата : Version 4 / Version 2
Размер файла : 1,45 Гбайт
Продолжительность : 1 ч. 54 м.
Общий поток : 1822 Кбит/сек
Название фильма : Остров / The Island (1980) BDRip-AVC rip by Rulya74
Дата кодирования : UTC 2014-04-11 04:14:30
Программа кодирования : mkvmerge v6.5.0 ('Isn't she lovely') built on Oct 20 2013 12:50:05
Библиотека кодирования : libebml v1.3.0 + libmatroska v1.4.1

Видео
Идентификатор : 1
Формат : AVC
Формат/Информация : Advanced Video Codec
Профиль формата : High@L4.1
Параметр CABAC формата : Да
Параметр ReFrames формата : 10 кадров
Идентификатор кодека : V_MPEG4/ISO/AVC
Продолжительность : 1 ч. 54 м.
Битрейт : 1629 Кбит/сек
Ширина : 1024 пикселя
Высота : 432 пикселя
Соотношение сторон : 2,40:1
Режим частоты кадров : Постоянный
Частота кадров : 23,976 кадра/сек
Цветовое пространство : YUV
Субдискретизация насыщенности : 4:2:0
Битовая глубина : 8 бит
Тип развёртки : Прогрессивная
Бит/(Пиксели*Кадры) : 0.154
Размер потока : 1,27 Гбайт (87%)
Библиотека кодирования : x264 core 138 r2358 9e941d1
Настройки программы : cabac=1 / ref=10 / deblock=1:-2:-1 / analyse=0x3:0x113 / me=umh / subme=11 / psy=1 / psy_rd=1.00:0.00 / mixed_ref=1 / me_range=48 / chroma_me=1 / trellis=2 / 8x8dct=1 / cqm=0 / deadzone=21,11 / fast_pskip=0 / chroma_qp_offset=-2 / threads=8 / lookahead_threads=2 / sliced_threads=0 / nr=0 / decimate=1 / interlaced=0 / bluray_compat=0 / constrained_intra=0 / bframes=11 / b_pyramid=2 / b_adapt=2 / b_bias=0 / direct=3 / weightb=1 / open_gop=0 / weightp=2 / keyint=240 / keyint_min=23 / scenecut=40 / intra_refresh=0 / rc_lookahead=40 / rc=2pass / mbtree=1 / bitrate=1629 / ratetol=1.0 / qcomp=0.60 / qpmin=0 / qpmax=69 / qpstep=4 / cplxblur=20.0 / qblur=0.5 / vbv_maxrate=62500 / vbv_bufsize=78125 / nal_hrd=none / ip_ratio=1.40 / aq=2:1.00
Default : Да
Forced : Нет

Аудио
Идентификатор : 2
Формат : AC-3
Формат/Информация : Audio Coding 3
Расширение режима : CM (complete main)
Параметр Endianness формата : Big
Идентификатор кодека : A_AC3
Продолжительность : 1 ч. 54 м.
Вид битрейта : Постоянный
Битрейт : 192 Кбит/сек
Каналы : 2 канала
Расположение каналов : Front: L R
Частота : 48,0 КГц
Битовая глубина : 16 бит
Метод сжатия : С потерями
Размер потока : 157 Мбайт (11%)
Заголовок : Профессиональный (многоголосый закадровый) Первый канал
Язык : Russian
Default : Да
Forced : Нет

Текст
Идентификатор : 3
Формат : UTF-8
Идентификатор кодека : S_TEXT/UTF8
Идентификатор кодека/Информация : UTF-8 Plain Text
Язык : English
Default : Да
Forced : Нет

Меню
00:00:00.000 : en:00:00:00.000
00:10:00.600 : en:00:10:00.600
00:20:01.200 : en:00:20:01.200
00:30:01.800 : en:00:30:01.800
00:40:02.400 : en:00:40:02.400
00:50:03.000 : en:00:50:03.000
01:00:03.600 : en:01:00:03.600
01:10:04.200 : en:01:10:04.200
01:20:04.800 : en:01:20:04.800
01:30:05.400 : en:01:30:05.400
01:40:06.000 : en:01:40:06.000
01:50:06.600 : en:01:50:06.600



Скачать Остров.The.Island.(Майкл.Ритчи).[1980.боевик.триллер.драма.приключения.BDRip-AVC].[MVO].torrent без регистрации
Золото ЗОЛОТАЯ РАЗДАЧА! СКАЧАННОЕ НЕ ЗАСЧИТЫВАЕТСЯ! Золото
Дата: Зарегистрирован   [ Тип: внутренний ] Как тут cкачать?
MAGNET ссылка
MAGNET ссылка


Скачать .torrent

15 KB

Статус: проверено DHT
Скачан: торрент - 103 раз, раздача полностью - 2 раз
Размер: 1,45 GB
Оценка:  5 (Голосов: 1)
Поблагодарили: 2
Поделиться ссылкой на эту раздачу с друзьями:
В контактеFacebookОдноклассникиTwitterLivejournalМой МирLiveinternet
 

 
Показать сообщения:    


Вы не можете начинать темы
Вы не можете отвечать на сообщения
Вы не можете редактировать свои сообщения
Вы не можете удалять свои сообщения
Вы не можете голосовать в опросах
Вы не можете прикреплять файлы к сообщениям
Вы можете скачивать файлы