Loading...
Error

Скачать Войны Света / Daybreakers (Майкл Спириг, Питер Спириг) [2009, ужасы, фантастика, боевик, триллер, драма, BDRip-AVC] [Dub] [Лицензия] торрент без регистрации

 
Статистика раздачи
Размер:  1,58 GB   |    Скачан:  4092 раза
Сидов:  1  [  0 KB/s  ]  
 
Автор Сообщение

МихаНЕзатор

[] 

Информация о фильме
Название: Войны Света
Оригинальное название: Daybreakers
Год выхода: 2009
Жанр: ужасы, фантастика, боевик, триллер, драма
Режиссер: Майкл Спириг, Питер Спириг

В ролях: Этан Хоук, Гвинет Пэлтроу, Аллан Тодд, Питер Велман, Дэмиен Гарви, Мишель Эткинсон, Джек Брэдфорд, Крис Браун

О фильме: «В 2019 году самым ценным природным ресурсом будут... люди»
Привычный нам мир полностью изменился, раса вампиров захватила всю планету и разрослась неимоверно, власти (состоящие исключительно из глав кланов вампиров) бьют тревогу, ведь человеческих особей по всей планете остается максимум на полтора месяца, после людей не останется, а вместе с их исчезновением, пропадет калорийная пища для вампиров и их существование тоже встанет под знак вопроса. Ученые пытаются изобрести искусственный заменитель крови, но его качество желает быть лучше. Человеческие ученые же, выработали сыворотку, способную превращать вампира в обычного человека, но прячась в бункере переживают и хотят объявить о своем открытии общественности. Может быть два варианта развития, вампиры согласятся и вся раса превратится в человеческую, или же вакцину будут использоваться частично, чтобы часть вампиров превращать в людей, а после употреблять их кровь в качестве питания.



Страна: Австралия, США
Студия: Australian Film Finance Corporation (AFFC), Lionsgate, Pictures in Paradise Pty. Ltd.
Продолжительность: 01:37:48
Перевод: Дублированный Лицензия

Файл
Кодек: h.264
Качество: BDRip-AVC
Видео: AVC, 1024 x 436, ~1813 kbps
Звук: AC-3, 6 ch, 448 kbps
Субтитры: нет

АНОНСЫ ПОПУЛЯРНЫХ РАЗДАЧ
Общее
Уникальный идентификатор : 168348648403719580577546155723716462494 (0x7EA6C532C2870C1E037BA147C20E879E)
Полное имя : H:Войны Света Daybreakers (2009)Daybreakers.2009.BDRip-AVC.mkv
Формат : Matroska
Версия формата : Version 2
Размер файла : 1,58 Гбайт
Продолжительность : 1 ч. 37 м.
Режим общего битрейта : Переменный
Общий поток : 2307 Кбит/сек
Программа кодирования : Lavf51.12.1
Библиотека кодирования : Lavf51.12.1

Видео
Идентификатор : 1
Формат : AVC
Формат/Информация : Advanced Video Codec
Профиль формата : Baseline@L3.1
Параметр CABAC формата : Нет
Параметр ReFrames формата : 1 кадр
Параметр GOP формата : M=1, N=12
Идентификатор кодека : V_MPEG4/ISO/AVC
Продолжительность : 1 ч. 37 м.
Вид битрейта : Переменный
Битрейт : 1813 Кбит/сек
Максимальный битрейт : 2790 Кбит/сек
Ширина : 1024 пикселя
Высота : 436 пикселей
Соотношение сторон : 2,35:1
Соотношение сторон в оригинале : 2,35:1
Режим частоты кадров : Постоянный
Частота кадров : 23,976 кадра/сек
Частота кадров в оригинале : 24,000 кадра/сек
Цветовое пространство : YUV
Субдискретизация насыщенности : 4:2:0
Битовая глубина : 8 бит
Тип развёртки : Прогрессивная
Бит/(Пиксели*Кадры) : 0.169
Размер потока : 1,24 Гбайт (79%)
Язык : English
Default : Да
Forced : Нет

Аудио
Идентификатор : 2
Формат : AC-3
Формат/Информация : Audio Coding 3
Расширение режима : CM (complete main)
Параметр Endianness формата : Big
Идентификатор кодека : A_AC3
Продолжительность : 1 ч. 37 м.
Вид битрейта : Постоянный
Битрейт : 448 Кбит/сек
Каналы : 6 каналов
Расположение каналов : Front: L C R, Side: L R, LFE
Частота : 48,0 КГц
Битовая глубина : 16 бит
Метод сжатия : С потерями
Размер потока : 313 Мбайт (19%)
Язык : Russian
Default : Да
Forced : Нет



Скачать Войны.Света.Daybreakers.(Майкл.Спириг.Питер.Спириг).[2009.ужасы.фантастика.боевик.триллер.драма.BDRip-AVC].[Dub].[Лицензия].torrent без регистрации
Золото ЗОЛОТАЯ РАЗДАЧА! СКАЧАННОЕ НЕ ЗАСЧИТЫВАЕТСЯ! Золото
Дата: Зарегистрирован   [ Тип: внутренний ] Как тут cкачать?
MAGNET ссылка
MAGNET ссылка


Скачать .torrent

17 KB

Статус: проверено DHT
Скачан: торрент - 4092 раз, раздача полностью - 113 раз
Размер: 1,58 GB
Оценка:  - (Голосов: 0)
Поблагодарили: 5
Поделиться ссылкой на эту раздачу с друзьями:
В контактеFacebookОдноклассникиTwitterLivejournalМой МирLiveinternet
 

 
Показать сообщения:    


Вы не можете начинать темы
Вы не можете отвечать на сообщения
Вы не можете редактировать свои сообщения
Вы не можете удалять свои сообщения
Вы не можете голосовать в опросах
Вы не можете прикреплять файлы к сообщениям
Вы можете скачивать файлы