Loading...
Error

Скачать Большая любовь / La grand amour (Пьер Этекс) [1968, мелодрама, комедия, BDRip] [VO]+[Sub] торрент без регистрации

 
Статистика раздачи
Размер:  1,46 GB   |    Скачан:  140 раз
Сидов:  1  [  0 KB/s  ]  
 
Автор Сообщение

Marsianka

[] 

Название: Большая любовь
Оригинальное название: La grand amour
Год выпуска: 1968
Жанр: мелодрама, комедия
Выпущено: Франция, C.A.P.A.C., Les Productions de la Gueville, Madeleine Films
Режиссер: Пьер Этекс
В ролях: Пьер Этекс, Николь Кальфан, Анни Фрателлини, Ален Жанэ, Кетти Франсе, Луис Маисс, Рене Гарде, Клод Массот, Миша Байярд, Жан Беретта, Сильвия Далаланде

О фильме: Пьер женат на Флоранс. Его семейная и профессиональная жизнь складывается удачно. Он работает директором на заводе собственного тестя и целыми днями подписывает чеки, а вечерами смотрит телевизор. Однообразно текут годы. Внезапно на работу поступает новая молоденькая секретарша, он влюбляется в неё и начинает мечтать

Качество: BDRip
Видео: XviD, 2000 Кбит/с, 704x432
Аудио: Русский (AC3, 2 ch, 192 Кбит/с), французский (AC3, 1 ch, 192 Кбит/с)
Размер: 1.46 ГБ
Продолжительность: 01:27:27
Перевод: Любительский одноголосый (dimadima)
Субтитры: Английские

Исходник: posodobl (Кинозал)

Сравнение с исходником

Каннский кинофестиваль, 1969 год
Номинации (1):
Золотая пальмовая ветвь
Общее
Полное имя : D:VideoBolshaja ljubov.1969.XviD.BDRipBolshaja ljubov.1969.eng.srt
Формат : SubRip
Размер файла : 39,2 Кбайт

Текст
Формат : SubRip
Метод сжатия : Без потерь

Общее
Полное имя : D:VideoBolshaja ljubov.1969.XviD.BDRipBolshaja ljubov.1969.Original.fre.ac3
Формат : AC-3
Формат/Информация : Audio Coding 3
Размер файла : 120 Мбайт
Продолжительность : 1 ч. 27 м.
Режим общего битрейта : Постоянный
Общий поток : 192 Кбит/сек

Аудио
Формат : AC-3
Формат/Информация : Audio Coding 3
Расширение режима : CM (complete main)
Параметр Endianness формата : Big
Продолжительность : 1 ч. 27 м.
Вид битрейта : Постоянный
Битрейт : 192 Кбит/сек
Каналы : 1 канал
Расположение каналов : Front: C
Частота : 48,0 КГц
Битовая глубина : 16 бит
Метод сжатия : С потерями
Размер потока : 120 Мбайт (100%)

Общее
Полное имя : D:VideoBolshaja ljubov.1969.XviD.BDRipBolshaja ljubov.1969.XviD.BDRip.avi
Формат : AVI
Формат/Информация : Audio Video Interleave
Размер файла : 1,34 Гбайт
Продолжительность : 1 ч. 27 м.
Общий поток : 2201 Кбит/сек
Программа кодирования : VirtualDubMod 1.5.10.2 (build 2540/release)
Библиотека кодирования : VirtualDubMod build 2540/release

Видео
Идентификатор : 0
Формат : MPEG-4 Visual
Профиль формата : Advanced Simple@L5
Параметр BVOP формата : 1
Параметр QPel формата : Нет
Параметр GMC формата : Без точки перехода
Параметр матрицы формата : Default (H.263)
Режим смешивания : Сжатый битовый поток
Идентификатор кодека : XVID
Идентификатор кодека/Подсказка : XviD
Продолжительность : 1 ч. 27 м.
Битрейт : 2000 Кбит/сек
Ширина : 704 пикселя
Высота : 432 пикселя
Соотношение сторон : 16:10
Частота кадров : 23,976 кадра/сек
Цветовое пространство : YUV
Субдискретизация насыщенности : 4:2:0
Битовая глубина : 8 бит
Тип развёртки : Прогрессивная
Метод сжатия : С потерями
Бит/(Пиксели*Кадры) : 0.274
Размер потока : 1,22 Гбайт (91%)
Библиотека кодирования : XviD 1.2.1 (UTC 2008-12-04)

Аудио
Идентификатор : 1
Формат : AC-3
Формат/Информация : Audio Coding 3
Расширение режима : CM (complete main)
Параметр Endianness формата : Big
Идентификатор кодека : 2000
Продолжительность : 1 ч. 27 м.
Вид битрейта : Постоянный
Битрейт : 192 Кбит/сек
Каналы : 2 канала
Расположение каналов : Front: L R
Частота : 48,0 КГц
Битовая глубина : 16 бит
Метод сжатия : С потерями
Размер потока : 120 Мбайт (9%)
Выравнивание : Разделение по промежуткам
Продолжительность промежутка : 42 мс. (1,00 видеокадр)
Время предзагрузки промежутка : 500 мс.



Скачать Большая.любовь.La.grand.amour.(Пьер.Этекс).[1968.мелодрама.комедия.BDRip].[VO]+[Sub].torrent без регистрации
Золото ЗОЛОТАЯ РАЗДАЧА! СКАЧАННОЕ НЕ ЗАСЧИТЫВАЕТСЯ! Золото
Дата: Зарегистрирован   [ Тип: внутренний ] Как тут cкачать?
MAGNET ссылка
MAGNET ссылка


Скачать .torrent

15 KB

Статус: проверено DHT
Скачан: торрент - 140 раз, раздача полностью - 1 раз
Размер: 1,46 GB
Оценка:  - (Голосов: 0)
Поблагодарили: 0
Поделиться ссылкой на эту раздачу с друзьями:
В контактеFacebookОдноклассникиTwitterLivejournalМой МирLiveinternet
 

 
Показать сообщения:    


Вы не можете начинать темы
Вы не можете отвечать на сообщения
Вы не можете редактировать свои сообщения
Вы не можете удалять свои сообщения
Вы не можете голосовать в опросах
Вы не можете прикреплять файлы к сообщениям
Вы можете скачивать файлы