Loading...
Error

Скачать Локис / Lokis. Rekopis profesora Wittembacha (Януш Маевский) [1970, фэнтези, DVDRip] [Dub] торрент без регистрации

 
Статистика раздачи
Размер:  1,46 GB   |    Скачан:  97 раз
Сидов:  1  [  0 KB/s  ]  
 
Автор Сообщение

Marsianka

[] 



Страна: Польша
Производство: P.P. Film Polski
Жанр: фэнтези
Год выпуска: 1970
Продолжительность: 01:34:40
Перевод: Дублированный
Оригинальная аудиодорожка: Польская
Режиссер: Януш Маевский
В ролях: Юзеф Дурьяш, Эдмунд Феттинг, Густав Люткевич, Малгожата Браунек, Зофья Мрозовска, Ханна Станкувна, Богуш Билевский, Владислав Девойно, Витольд Хольтз, Ирена Хорецка

Описание: 19 век, литовская провинция. В имении, принадлежащем благородному семейству, останавливается пастор. Его хозяева молодой человек и его сумасшедшая мать. Местные крестьяне считают, что в господском доме давно поселилась нечистая сила. Они говорят, что однажды на барыню напал в лесу медведь, и ее сын это сын медведя. Вскоре пастор понимает, что это правда: по ночам молодой человек превращается в медведя.




Исходник: DVD9 R1
Тип релиза: DVDRip
Контейнер: AVI
Видео: XviD, 1808 Кбит/с, 720x440
Аудио: Русский, польский (АС3, 2 ch, 192 Кбит/с)
Общее
Полное имя : D:1АААЛокис.avi
Формат : AVI
Формат/Информация : Audio Video Interleave
Размер файла : 1,46 Гбайт
Продолжительность : 1 ч. 34 м.
Общий поток : 2206 Кбит/сек
Программа кодирования : VirtualDubMod 1.5.10.2 (build 2540/release)
Библиотека кодирования : VirtualDubMod build 2540/release

Видео
Идентификатор : 0
Формат : MPEG-4 Visual
Профиль формата : Advanced Simple@L5
Параметр BVOP формата : 2
Параметр QPel формата : Нет
Параметр GMC формата : Без точки перехода
Параметр матрицы формата : Default (MPEG)
Идентификатор кодека : XVID
Идентификатор кодека/Подсказка : XviD
Продолжительность : 1 ч. 34 м.
Битрейт : 1808 Кбит/сек
Ширина : 720 пикселей
Высота : 440 пикселей
Соотношение сторон : 1,636
Частота кадров : 23,976 кадра/сек
Цветовое пространство : YUV
Субдискретизация насыщенности : 4:2:0
Битовая глубина : 8 бит
Тип развёртки : Прогрессивная
Метод сжатия : С потерями
Бит/(Пиксели*Кадры) : 0.238
Размер потока : 1,20 Гбайт (82%)
Библиотека кодирования : XviD 1.2.1 (UTC 2008-12-04)

Аудио #1
Идентификатор : 1
Формат : AC-3
Формат/Информация : Audio Coding 3
Расширение режима : CM (complete main)
Параметр Endianness формата : Big
Идентификатор кодека : 2000
Продолжительность : 1 ч. 34 м.
Вид битрейта : Постоянный
Битрейт : 192 Кбит/сек
Каналы : 2 канала
Расположение каналов : Front: L R
Частота : 48,0 КГц
Битовая глубина : 16 бит
Метод сжатия : С потерями
Размер потока : 130 Мбайт (9%)
Выравнивание : Разделение по промежуткам
Продолжительность промежутка : 42 мс. (1,00 видеокадр)
Время предзагрузки промежутка : 500 мс.

Аудио #2
Идентификатор : 2
Формат : AC-3
Формат/Информация : Audio Coding 3
Расширение режима : CM (complete main)
Параметр Endianness формата : Big
Идентификатор кодека : 2000
Продолжительность : 1 ч. 34 м.
Вид битрейта : Постоянный
Битрейт : 192 Кбит/сек
Каналы : 2 канала
Расположение каналов : Front: L R
Частота : 48,0 КГц
Битовая глубина : 16 бит
Метод сжатия : С потерями
Размер потока : 130 Мбайт (9%)
Выравнивание : Разделение по промежуткам
Продолжительность промежутка : 42 мс. (1,00 видеокадр)
Время предзагрузки промежутка : 500 мс.
Релиз группа:
Автор рипа:



Скачать Локис.Lokis.Rekopis.profesora.Wittembacha.(Януш.Маевский).[1970.фэнтези.DVDRip].[Dub].torrent без регистрации
Золото ЗОЛОТАЯ РАЗДАЧА! СКАЧАННОЕ НЕ ЗАСЧИТЫВАЕТСЯ! Золото
Дата: Зарегистрирован   [ Тип: внутренний ] Как тут cкачать?
MAGNET ссылка
MAGNET ссылка


Скачать .torrent

15 KB

Статус: проверено DHT
Скачан: торрент - 97 раз, раздача полностью - 32 раз
Размер: 1,46 GB
Оценка:  - (Голосов: 0)
Поблагодарили: 1
Поделиться ссылкой на эту раздачу с друзьями:
В контактеFacebookОдноклассникиTwitterLivejournalМой МирLiveinternet
 

 

Gошан

[] 

По одноименной новелле Проспера Мериме, опубликованна в "Revue des Deux Mondes" в сентябре 1869 года, за год до его смерти. Переведена на русский язык поэтом М. Кузминым. ac
 
Показать сообщения:    


Вы не можете начинать темы
Вы не можете отвечать на сообщения
Вы не можете редактировать свои сообщения
Вы не можете удалять свои сообщения
Вы не можете голосовать в опросах
Вы не можете прикреплять файлы к сообщениям
Вы можете скачивать файлы