Loading...
Error

Скачать Харлей Дэвидсон и ковбой Мальборо / Harley Davidson and the Marlboro Man (Саймон Уинсер) [1991, боевик, триллер, драма, криминал, WEB-DLRip-AVC] [MVO] торрент без регистрации

 
Статистика раздачи
Размер:  1,32 GB   |    Скачан:  116 раз
Сидов:  1  [  0 KB/s  ]  
 
Автор Сообщение

leon030982

[] 

Харлей Дэвидсон и ковбой Мальборо / Harley Davidson and the Marlboro Man


Год выхода: 1991
Жанр: боевик, триллер, драма, криминал
Страна: США
Продолжительность: 01:38:30
Перевод: Профессиональный (многоголосый закадровый) НТВ
Субтитры: Русские, Русские (Гоблин-нецензурная лексика), Английские

Режиссер: Саймон Уинсер

В ролях: Микки Рурк, Дон Джонсон, Челси Филд, Тиа Каррере, Дэниэл Болдуин, Джанкарло Эспозито, Ванесса Уильямс, Роберт Гинти, Джулиус Харрис, Элой Касадос...

О фильме: Ренегат Микки Рурк и невероятно талантливый Дон Джонсон с безудержной мощью и непередаваемым юмором сыграли грубоватых и одновременно сердечных «Робин Гудов» нашего времени. В беззаконном мире конца 80-х некий банк грубо пытается отнять принадлежащий бывшему рокеру бар.

Бродяги Харли Дэвидсон и Ковбой Марльборо решили помочь своему старому другу и ограбить инкассаторов банка. Однако в бронемашине оказываются не деньги, а наркотики. Теперь Рурка и Джонсона преследует банда прихвостней коррумпированного банкира. Скоростные мотоциклы, динамичное действие и мощное современное оружие составляют взрывоопасный рецепт этого футуристического приключенческого фильма.



Файл
Кодек: x.264
Качество: WEB-DLRip-AVC
Видео: 976x528 (1,85:1), 23,976 fps, 1727 kbps, 0.140 bit/pixel
Звук: 48 kHz, AC3 Dolby Digital, 2 ch, ~192.00 kbps
Субтитры: Русские, Русские (Гоблин-нецензурная лексика), Английские

&
Общее
Уникальный идентификатор : 196745356298667510414527729432195689067 (0x9403C6FDE27F7915883A4DFD2102EA6B)
Полное имя : D:Harley Davidson and the Marlboro Man.1991.WEBRip-AVC.mkv
Формат : Matroska
Версия формата : Version 4 / Version 2
Размер файла : 1,32 Гбайт
Продолжительность : 1 ч. 38 м.
Общий поток : 1920 Кбит/сек
Название фильма : Харлей Дэвидсон и Ковбой Марльборо / Harley Davidson and the Marlboro Man (1991) WEBRip-AVC rip by Rulya74
Дата кодирования : UTC 2014-04-12 04:27:41
Программа кодирования : mkvmerge v6.5.0 ('Isn't she lovely') built on Oct 20 2013 12:50:05
Библиотека кодирования : libebml v1.3.0 + libmatroska v1.4.1

Видео
Идентификатор : 1
Формат : AVC
Формат/Информация : Advanced Video Codec
Профиль формата : High@L4.1
Параметр CABAC формата : Да
Параметр ReFrames формата : 10 кадров
Идентификатор кодека : V_MPEG4/ISO/AVC
Продолжительность : 1 ч. 38 м.
Битрейт : 1727 Кбит/сек
Ширина : 976 пикселей
Высота : 528 пикселей
Соотношение сторон : 1,85:1
Режим частоты кадров : Постоянный
Частота кадров : 23,976 кадра/сек
Цветовое пространство : YUV
Субдискретизация насыщенности : 4:2:0
Битовая глубина : 8 бит
Тип развёртки : Прогрессивная
Бит/(Пиксели*Кадры) : 0.140
Размер потока : 1,16 Гбайт (88%)
Библиотека кодирования : x264 core 138 r2358 9e941d1
Настройки программы : cabac=1 / ref=10 / deblock=1:-1:-1 / analyse=0x3:0x113 / me=umh / subme=10 / psy=1 / psy_rd=1.04:0.07 / mixed_ref=1 / me_range=48 / chroma_me=1 / trellis=2 / 8x8dct=1 / cqm=0 / deadzone=21,11 / fast_pskip=0 / chroma_qp_offset=-3 / threads=4 / lookahead_threads=1 / sliced_threads=0 / nr=0 / decimate=1 / interlaced=0 / bluray_compat=0 / constrained_intra=0 / bframes=6 / b_pyramid=2 / b_adapt=2 / b_bias=0 / direct=1 / weightb=1 / open_gop=0 / weightp=2 / keyint=240 / keyint_min=23 / scenecut=40 / intra_refresh=0 / rc_lookahead=40 / rc=2pass / mbtree=1 / bitrate=1727 / ratetol=1.0 / qcomp=0.60 / qpmin=0 / qpmax=69 / qpstep=4 / cplxblur=20.0 / qblur=0.5 / vbv_maxrate=62500 / vbv_bufsize=78125 / nal_hrd=none / ip_ratio=1.40 / aq=1:1.00
Default : Да
Forced : Нет

Аудио
Идентификатор : 2
Формат : AC-3
Формат/Информация : Audio Coding 3
Расширение режима : CM (complete main)
Параметр Endianness формата : Big
Идентификатор кодека : A_AC3
Продолжительность : 1 ч. 38 м.
Вид битрейта : Постоянный
Битрейт : 192 Кбит/сек
Каналы : 2 канала
Расположение каналов : Front: L R
Частота : 48,0 КГц
Битовая глубина : 16 бит
Метод сжатия : С потерями
Размер потока : 135 Мбайт (10%)
Заголовок : Профессиональный (многоголосый закадровый) НТВ
Язык : Russian
Default : Да
Forced : Нет

Текст #1
Идентификатор : 3
Формат : UTF-8
Идентификатор кодека : S_TEXT/UTF8
Идентификатор кодека/Информация : UTF-8 Plain Text
Язык : Russian
Default : Да
Forced : Нет

Текст #2
Идентификатор : 4
Формат : UTF-8
Идентификатор кодека : S_TEXT/UTF8
Идентификатор кодека/Информация : UTF-8 Plain Text
Заголовок : (Гоблин-нецензурная лексика)
Язык : Russian
Default : Нет
Forced : Нет

Текст #3
Идентификатор : 5
Формат : UTF-8
Идентификатор кодека : S_TEXT/UTF8
Идентификатор кодека/Информация : UTF-8 Plain Text
Язык : English
Default : Нет
Forced : Нет

Меню
00:00:00.000 : en:Chapter 1
00:11:05.000 : en:Chapter 2
00:23:55.000 : en:Chapter 3
00:35:50.000 : en:Chapter 4
00:49:01.000 : en:Chapter 5
00:57:51.000 : en:Chapter 6
01:07:26.000 : en:Chapter 7
01:23:35.000 : en:Chapter 8



Скачать Харлей.Дэвидсон.и.ковбой.Мальборо.Harley.Davidson.and.the.Marlboro.Man.(Саймон.Уинсер).[1991.боевик.триллер.драма.криминал.WEB-DLRip-AVC].[MVO].torrent без регистрации
Золото ЗОЛОТАЯ РАЗДАЧА! СКАЧАННОЕ НЕ ЗАСЧИТЫВАЕТСЯ! Золото
Дата: Зарегистрирован   [ Тип: внутренний ] Как тут cкачать?
MAGNET ссылка
MAGNET ссылка


Скачать .torrent

14 KB

Статус: проверено DHT
Скачан: торрент - 116 раз, раздача полностью - 11 раз
Размер: 1,32 GB
Оценка:  - (Голосов: 0)
Поблагодарили: 0
Поделиться ссылкой на эту раздачу с друзьями:
В контактеFacebookОдноклассникиTwitterLivejournalМой МирLiveinternet
 

 
Показать сообщения:    


Вы не можете начинать темы
Вы не можете отвечать на сообщения
Вы не можете редактировать свои сообщения
Вы не можете удалять свои сообщения
Вы не можете голосовать в опросах
Вы не можете прикреплять файлы к сообщениям
Вы можете скачивать файлы