Loading...
Error

Скачать Назад в будущее / Back to the Future (Роберт Земекис) [1985, фантастика, комедия, приключения, BDRip] [Dub]+[Sub]x2 торрент без регистрации

 
Статистика раздачи
Размер:  745 MB   |    Скачан:  140 раз
Сидов:  7  [  0 KB/s  ]  
 
Автор Сообщение

Marsianka

[] 

Страна: США
Производство: Amblin Entertainment, U-Drive Productions, Universal Pictures
Жанр: фантастика, комедия, приключения
Год выпуска: 1985
Продолжительность: 01:56:01

Перевод: Профессиональный (полное дублирование)
Оригинальная аудиодорожка: нет
Cубтитры: русский, английский

Режиссер: Роберт Земекис / Robert Zemeckis

В ролях:
Майкл Дж. Фокс, Кристофер Ллойд, Лиа Томпсон, Криспин Гловер, Томас Ф. Уилсон, Клодия Уэллс, Марк МакКлюр, Уэнди Джо Спербер, Джордж ДиЧенцо, Фрэнсис Ли МакКейн...

Описание:
Подросток Марти с помощью машины времени, сооруженной его другом профессором доком Брауном, попадает из 80-х в далекие 50-е. Там он встречается со своими будущими родителями, еще подростками, и другом-профессором, совсем молодым

Исходник: BDRemux 1080p
Тип релиза: BDRip
Контейнер: AVI

Видео: 624x336 (1,85:1), 23,976 fps, XviD ~ 764 kbps avg, 0.152 bit/pixel
Аудио: 48 kHz, MP3 2.0, 128 kbps

Раздача от:

Общее
Полное имя : Nazad.v.budushhee.1985.BDRip-745_[New-team]_by_AVP_Studio.avi
Формат : AVI
Формат/Информация : Audio Video Interleave
Размер файла : 745 Мбайт
Продолжительность : 1 ч. 55 м.
Общий поток : 902 Кбит/сек
Программа кодирования : VirtualDubModRus 1.5.10.2 (build 2542/release)
Библиотека кодирования : VirtualDubMod build 2542/release

Видео
Идентификатор : 0
Формат : MPEG-4 Visual
Профиль формата : Advanced Simple@L5
Параметр BVOP формата : 1
Параметр QPel формата : Нет
Параметр GMC формата : Без точки перехода
Параметр матрицы формата : Выборочная
Идентификатор кодека : XVID
Идентификатор кодека/Подсказка : XviD
Продолжительность : 1 ч. 55 м.
Битрейт : 764 Кбит/сек
Ширина : 624 пикселя
Высота : 336 пикселей
Соотношение сторон : 1,85:1
Частота кадров : 23,976 кадра/сек
Цветовое пространство : YUV
Субдискретизация насыщенности : 4:2:0
Битовая глубина : 8 бит
Тип развёртки : Прогрессивная
Метод сжатия : С потерями
Бит/(Пиксели*Кадры) : 0.152
Размер потока : 632 Мбайт (85%)
Библиотека кодирования : XviD 73

Аудио
Идентификатор : 1
Формат : MPEG Audio
Версия формата : Version 1
Профиль формата : Layer 3
Идентификатор кодека : 55
Идентификатор кодека/Подсказка : MP3
Продолжительность : 1 ч. 55 м.
Вид битрейта : Постоянный
Битрейт : 128 Кбит/сек
Каналы : 2 канала
Частота : 48,0 КГц
Метод сжатия : С потерями
Размер потока : 106 Мбайт (14%)
Выравнивание : Соединение по промежуткам
Продолжительность промежутка : 42 мс. (1,00 видеокадр)
Время предзагрузки промежутка : 504 мс.
Библиотека кодирования : LAME3.99r
Настройки программы : -m s -V 4 -q 2 -lowpass 17 -b 128



Скачать Назад.в.будущее.Back.to.the.Future.(Роберт.Земекис).[1985.фантастика.комедия.приключения.BDRip].[Dub]+[Sub]x2.torrent без регистрации
Золото ЗОЛОТАЯ РАЗДАЧА! СКАЧАННОЕ НЕ ЗАСЧИТЫВАЕТСЯ! Золото
Дата: Зарегистрирован   [ Тип: внешний ] Как тут cкачать?
MAGNET ссылка
MAGNET ссылка


Скачать .torrent

15 KB

Статус: проверено DHT
Скачан: торрент - 140 раз, раздача полностью - 85 раз
Размер: 745 MB
Оценка:  5 (Голосов: 1)
Поблагодарили: 1
Поделиться ссылкой на эту раздачу с друзьями:
В контактеFacebookОдноклассникиTwitterLivejournalМой МирLiveinternet
 

 
Показать сообщения:    


Вы не можете начинать темы
Вы не можете отвечать на сообщения
Вы не можете редактировать свои сообщения
Вы не можете удалять свои сообщения
Вы не можете голосовать в опросах
Вы не можете прикреплять файлы к сообщениям
Вы можете скачивать файлы