Loading...
Error

Скачать Муха 2 / The Fly 2 (Крис Уолас) [1989, Ужасы, фантастика, HDTVRip-AVC] [MVO (НТВ+)] торрент без регистрации

 
Статистика раздачи
Размер:  2,16 GB   |    Скачан:  197 раз
Сидов:  1  [  0 KB/s  ]  
 
Автор Сообщение

jon99

[] 


Муха 2 / The Fly 2


Год выпуска: 1989
Выпущено: США, 20th Century Fox Film Corporation, Brooksfilms
Жанр: Ужасы, фантастика
Продолжительность: 01:37:30
Перевод: Профессиональный (многоголосый) НТВ +
Субтитры: Русские, английские
Режиссер: Крис Уолас
В ролях: Эрик Штолц, Дэфни Зунига, Ли Ричардсон, Джон Гец, Фрэнк Тернер, Энн Мари Ли
Описание: Под внешним, совершенно нормальным обликом молодого Мартина Брандла, сына, гениального ученого-биолога Сэта Брандла, скрывается самый необыкновенный человек из когда-либо живших на земле. Его генетический код был изменен в ходе неудавшегося научного эксперимента. Группа ученых содержит мутанта в научно-исследовательском центре и растит в строжайшем секрете, скрывая от него тайну его рождения и терпеливо ожидая начала превращения...
Рип сделан с этой раздачи - - > http://goldenshara.org/viewtopic.php?t=16037425
Единственный AVC рип в сети ! Дорожка с рипа от VHS TV RIP !



Качество: HDTV Rip-AVC
Формат: MKV
Видео кодек: h264
Аудио кодек: AC3
Видео: Size 1024 x 576 / 25.000 Кадр/с / bitrate 2 888 Kbps
Аудио: AC3, 2 ch, 224 Кбит/с - многоголосый "НТВ+"

Цитата:

General
Complete name : D:\HD&BluRae\The Fly 2 (1989) HDTVRip-AVC\The Fly 2 (1989)_HDTVRip-AVC.mkv
Format : Matroska
File size : 2.16 GiB
Duration : 1h 37mn
Overall bit rate : 3 175 Kbps
Encoded date : UTC 2014-04-13 19:31:31
Writing application : mkvmerge v4.3.0 ('Escape from the Island') сборка от Sep 5 2010 10:30:51
Writing library : libebml v1.0.0 + libmatroska v1.0.0

Video
ID : 1
Format : AVC
Format/Info : Advanced Video Codec
Format profile : Main@L3.1
Format settings, CABAC : Yes
Format settings, ReFrames : 2 frames
Muxing mode : Container profile=Unknown@3.1
Codec ID : V_MPEG4/ISO/AVC
Duration : 1h 37mn
Bit rate : 2 888 Kbps
Width : 1 024 pixels
Height : 576 pixels
Display aspect ratio : 16:9
Frame rate : 25.000 fps
Resolution : 8 bits
Colorimetry : 4:2:0
Scan type : Progressive
Bits/(Pixel*Frame) : 0.196
Stream size : 1.97 GiB (91%)

Audio
ID : 2
Format : AC-3
Format/Info : Audio Coding 3
Codec ID : A_AC3
Duration : 1h 37mn
Bit rate mode : Constant
Bit rate : 224 Kbps
Channel(s) : 2 channels
Channel positions : L R
Sampling rate : 48.0 KHz
Stream size : 156 MiB (7%)
Title : MVO.NTV+
Language : Russian

Text #1
ID : 3
Format : PGS
Codec ID : S_HDMV/PGS
Codec ID/Info : The same subtitle format used on BDs/HD-DVDs
Language : Russian

Text #2
ID : 4
Format : PGS
Codec ID : S_HDMV/PGS
Codec ID/Info : The same subtitle format used on BDs/HD-DVDs

Menu
00:00:00.000 : en:Start


БОЛЬШАЯ ПРОСЬБА ПРИ ПЕРЕЗАЛИВЕ НА ДРУГИЕ ТРЕКЕРЫ УКАЗЫВАТЬ АВТОРА СБОРКИ (РИПЕРА) !!!




Скачать Муха.2.The.Fly.2.(Крис.Уолас).[1989.Ужасы.фантастика.HDTVRip-AVC].[MVO.(НТВ+)].torrent без регистрации
Золото ЗОЛОТАЯ РАЗДАЧА! СКАЧАННОЕ НЕ ЗАСЧИТЫВАЕТСЯ! Золото
Дата: Зарегистрирован   [ Тип: внутренний ] Как тут cкачать?
MAGNET ссылка
MAGNET ссылка


Скачать .torrent

12 KB

Статус: проверено DHT
Скачан: торрент - 197 раз, раздача полностью - 1 раз
Размер: 2,16 GB
Оценка:  5 (Голосов: 3)
Поблагодарили: 4
Поделиться ссылкой на эту раздачу с друзьями:
В контактеFacebookОдноклассникиTwitterLivejournalМой МирLiveinternet
 

 

jon99

[] 

Цитата:

Если нужны дорожки с той раздачи , могу выложить !
Было затруднение сделать Рип с того " Битого " исходника , и казалось бы бросил эту затею но испробовал другой софт и вуаля "битые кадры переконвертировались" ! ay

Они не вырезаны а заменены пропусками и на таймер не влияют ! Таймер сокращен в связи с другой дорожкой ! Видео же не обрезалось ! Подгонка Аудиодорожки на глаз (рассинхрон не замечен ) !
 

zosh

[] 

Классный Фильм ay Давно искал ! Спасибо !
 
Показать сообщения:    


Вы не можете начинать темы
Вы не можете отвечать на сообщения
Вы не можете редактировать свои сообщения
Вы не можете удалять свои сообщения
Вы не можете голосовать в опросах
Вы не можете прикреплять файлы к сообщениям
Вы можете скачивать файлы