Loading...
Error

Скачать Пробуждение / Awakenings (Пенни Маршалл) [1990, драма, биография, BDRip-AVC] [MVO] торрент без регистрации

 
Статистика раздачи
Размер:  2,1 GB   |    Скачан:  150 раз
Сидов:  1  [  0 KB/s  ]  
 
Автор Сообщение

Marsianka

[] 

Пробуждение / Awakenings (1990) BDRip-AVC | iPhone | P


Название: Пробуждение
Оригинальное название: Awakenings
Год выхода: 1990
Жанр: драма, биография
Режиссер: Пенни Маршалл
В ролях: Роберт Де Ниро, Робин Уильямс, Джон Хёрд, Джули Кавнер, Пенелопа Энн Миллер, Макс фон Сюдов, Брэдли Уитфорд, Петер Стормаре, Рут Нельсон, Элис Драммонд

О фильме:
Доктор Малколм Сэйер, застенчивый врач и ученый, использует экспериментальные препараты, чтобы «пробуждать» обездвиженные жертвы редкого заболевания. Леонард был первым пациентом, получившим это неопробованное лечение. Его пробуждение, наполненное благоговением, страхом и энтузиазмом, приводят как бы ко второму рождению и самого Сэйера по мере того, как пациент открывает для себя и доктора простые радости жизни. Воодушевленный чудесным выздоровлением Леонарда, Сэйер дает лекарство другим больным.



Страна: США
Студия: Columbia Pictures Corporation
Продолжительность: 02:00:41
Перевод: Русский профессиональный многоголосый закадровый

Файл
Кодек: H.264
Качество: BDRip-AVC [480p]
Видео: 640x460@851x460 (1.85:1) at 23.976 fps, AVC at 2100 kbps
1: АAС 2.0 160 kbps - Русский профессиональный многоголосый закадровый (HTB+)
2: АAС 2.0 144 kbps - Английский
Субтитры: отсутствуют

General
Complete name : C:CREATE264mod0outAwakenings.1990-480p.m4v
Format : MPEG-4
Codec ID : M4V
File size : 2.10 GiB
Duration : 2h 0mn
Overall bit rate mode : Variable
Overall bit rate : 2 495 Kbps
Movie name : Пробуждение
Performer : Penny Marshall
Genre : Drama
ContentType : Short Film
Deion : Доктор Малколм Сэйер, застенчивый врач и ученый, использует экспериментальные препараты, чтобы «пробуждать» обездвиженные жертвы редкого заболевания. Леонард был первым пациентом, получившим это неопробованное лечение.
Recorded date : UTC 1990-12-12 08:00:00
Encoded date : UTC 2014-04-13 17:50:13
Tagged date : UTC 2014-04-13 19:05:34
Copyright : Y 1990 Columbia Pictures Industries, Inc. All Rights Reserved.
Service name : AOL
Cover : Yes
Comment : «Открыв глаза на мир одному человеку... он открыл и свои собственные»
ContentRating : mpaa|PG-13|300|

Title/Sort : Awakenings
LongDeion : Доктор Малколм Сэйер, застенчивый врач и ученый, использует экспериментальные препараты, чтобы «пробуждать» обездвиженные жертвы редкого заболевания. Леонард был первым пациентом, получившим это неопробованное лечение. Его пробуждение, наполненное благоговением, страхом и энтузиазмом, приводят как бы ко второму рождению и самого Сэйера по мере того, как пациент открывает для себя и доктора простые радости жизни. Воодушевленный чудесным выздоровлением Леонарда, Сэйер дает лекарство другим больным.
AppleStoreAccountType : AOL
AppleStoreCountry : Unknown Country
AppleStoreCatalogID : 279699562
Vendor : Apple:vendor_id:1990-2950

Video
ID : 1
Format : AVC
Format/Info : Advanced Video Codec
Format profile : Baseline@L3.0
Format settings, CABAC : No
Format settings, ReFrames : 2 frames
Format settings, GOP : N=1
Codec ID : avc1
Codec ID/Info : Advanced Video Coding
Duration : 2h 0mn
Bit rate : 2 184 Kbps
Maximum bit rate : 6 468 Kbps
Width : 640 pixels
Height : 460 pixels
Display aspect ratio : 1.85:1
Frame rate mode : Constant
Frame rate : 23.976 fps
Color space : YUV
Chroma subsampling : 4:2:0
Bit depth : 8 bits
Scan type : Progressive
Bits/(Pixel*Frame) : 0.309
Stream size : 1.84 GiB (88%)
Language : English
Encoded date : UTC 2014-04-13 17:50:13
Tagged date : UTC 2014-04-13 17:50:28
Matrix coefficients : BT.709

Audio #1
ID : 2
Format : AAC
Format/Info : Advanced Audio Codec
Format profile : LC
Codec ID : 40
Duration : 1h 59mn
Bit rate mode : Variable
Bit rate : 159 Kbps
Maximum bit rate : 173 Kbps
Channel(s) : 2 channels
Channel positions : Front: L R
Sampling rate : 48.0 KHz
Compression mode : Lossy
Stream size : 136 MiB (6%)
Title : MVO HTB_
Language : Russian
Encoded date : UTC 2014-04-13 17:50:23
Tagged date : UTC 2014-04-13 17:50:28

Audio #2
ID : 3
Format : AAC
Format/Info : Advanced Audio Codec
Format profile : LC
Codec ID : 40
Duration : 2h 0mn
Bit rate mode : Variable
Bit rate : 144 Kbps
Maximum bit rate : 176 Kbps
Channel(s) : 2 channels
Channel positions : Front: L R
Sampling rate : 48.0 KHz
Compression mode : Lossy
Stream size : 124 MiB (6%)
Title : Original
Language : English
Encoded date : UTC 2014-04-13 17:50:26
Tagged date : UTC 2014-04-13 17:50:28


Sort Name: Awakenings
XID: Apple:vendor_id:1990-2950
Content ID: 279699562
Copyright: Y 1990 Columbia Pictures Industries, Inc. All Rights Reserved.
ScreenWriters: Стивен Зеллиан, Оливер Сакс
Producers: Лоуренс Ласкер, Уолтер Ф. Паркс, Эллиот Эбботт
Director: Пенни Маршалл
Cast: Роберт Де Ниро, Робин Уильямс, Джон Хёрд, Джули Кавнер, Пенелопа Энн Миллер, Макс фон Сюдов, Брэдли Уитфорд, Петер Стормаре, Рут Нельсон, Элис Драммонд // Robert De Niro (Leonard Lowe), Robin Williams (Dr. Malcolm Sayer), Julie Kavner (Eleanor Costello), Ruth Nelson (Mrs. Lowe), John Heard (Dr. Kaufman), Penelope Ann Miller (Paula), Alice Drummond (Lucy), Judith Malina (Rose), Barton Heyman (Bert), George Martin (Frank), Anne Meara (Miriam), Richard Libertini (Sidney), Laura Esterman (Lolly), Dexter Gordon (Rolando), Jayne Haynes (Frances), Le Clanche du Rand (Magda), Yusef Bulos (Joseph), Steven Randazzo (Luis (as Steve Randazzo)), Gloria Harper (Dottie), Gwyllum Evans (Desmond), Mary Catherine Wright (Nurse Beth), Mary Alice (Nurse Margaret), Keith Diamond (Anthony), Steve Vinovich (Ray), Tiger Haynes (Janitor), John Christopher Jones (Dr. Sullivan), Bradley Whitford (Dr. Tyler), Max von Sydow (Dr. Peter Ingham), Harvey Miller (Hospital Director), Tanya Berezin (Psychiatrist), Peter Stormare (Neurochemist), Shane Fistell (Man in Hall), Waheedah Ahmad (Hysterical Woman), Charles Keating (Mr. Kean), Christina Huertes (Christina), Linda Burns (Fishsticks), Judy Jacksina (Hospital Receptionist), Gary Tacon (George, Security Guard), Rico Elias (Orderly #1), Mel Gorham (Nurse Sara), Chris Carolan (EEG Technician), Debra Kovner-Zaks (Cafeteria Nurse), Vin Diesel (Hospital Orderly (Uncredited)), Laurence Fishburne (Orderly)
Rating: PG-13
Long Deion: Доктор Малколм Сэйер, застенчивый врач и ученый, использует экспериментальные препараты, чтобы «пробуждать» обездвиженные жертвы редкого заболевания. Леонард был первым пациентом, получившим это неопробованное лечение. Его пробуждение, наполненное благоговением, страхом и энтузиазмом, приводят как бы ко второму рождению и самого Сэйера по мере того, как пациент открывает для себя и доктора простые радости жизни. Воодушевленный чудесным выздоровлением Леонарда, Сэйер дает лекарство другим больным.
Deion: Доктор Малколм Сэйер, застенчивый врач и ученый, использует экспериментальные препараты, чтобы «пробуждать» обездвиженные жертвы редкого заболевания. Леонард был первым пациентом, получившим это неопробованное лечение.
Release Date: 1990-12-12T08:00:00Z
Genre: Drama
Artist: Penny Marshall
Name: Пробуждение
Comments: «Открыв глаза на мир одному человеку... он открыл и свои собственные»

x264 [info]: frame I:1927 Avg QP:17.96 size: 39308
x264 [info]: frame P:171689 Avg QP:20.66 size: 11075
x264 [info]: mb I I16..4: 33.1% 0.0% 66.9%
x264 [info]: mb P I16..4: 0.3% 0.0% 0.7% P16..4: 59.1% 21.0% 10.8% 1.7% 0.7% skip: 5.7%
x264 [info]: coded y,uvDC,uvAC intra: 75.6% 67.0% 42.7% inter: 53.4% 39.5% 11.1%
x264 [info]: i16 v,h,dc,p: 56% 9% 8% 27%
x264 [info]: i4 v,h,dc,ddl,ddr,vr,hd,vl,hu: 29% 13% 14% 7% 8% 10% 6% 8% 5%
x264 [info]: i8c dc,h,v,p: 59% 12% 23% 6%
x264 [info]: ref P L0: 79.4% 20.6%
x264 [info]: kb/s:2184.35














Скачать Пробуждение.Awakenings.(Пенни.Маршалл).[1990.драма.биография.BDRip-AVC].[MVO].torrent без регистрации
Золото ЗОЛОТАЯ РАЗДАЧА! СКАЧАННОЕ НЕ ЗАСЧИТЫВАЕТСЯ! Золото
Дата: Зарегистрирован   [ Тип: внутренний ] Как тут cкачать?
MAGNET ссылка
MAGNET ссылка


Скачать .torrent

11 KB

Статус: проверено DHT
Скачан: торрент - 150 раз, раздача полностью - 183 раз
Размер: 2,1 GB
Оценка:  - (Голосов: 0)
Поблагодарили: 3
Поделиться ссылкой на эту раздачу с друзьями:
В контактеFacebookОдноклассникиTwitterLivejournalМой МирLiveinternet
 

 
Показать сообщения:    


Вы не можете начинать темы
Вы не можете отвечать на сообщения
Вы не можете редактировать свои сообщения
Вы не можете удалять свои сообщения
Вы не можете голосовать в опросах
Вы не можете прикреплять файлы к сообщениям
Вы можете скачивать файлы