Loading...
Error

Скачать Одинокая звезда / Звезда шерифа / Lone Star (Джон Сейлз) [1996, детектив, WEB-DLRip] [MVO]+[AVO(Карцев)] торрент без регистрации

 
Статистика раздачи
Размер:  1,64 GB   |    Скачан:  93 раза
Сидов:  1  [  0 KB/s  ]  
 
Автор Сообщение

Marsianka

[] 

Одинокая звезда / Звезда шерифа / Lone Star
«John Sayles invites you to return to the scene of the crime»

Страна: США
Жанр: детектив
Год выпуска: 1996
Продолжительность: 02:09:55
Перевод 1: Профессиональный (многоголосый закадровый)
Перевод 2: Авторский (одноголосый закадровый) [Петр Карцев] - (отдельно)
Cубтитры: нет
Режиссер: Джон Сейлз / John Sayles
В ролях: Крис Кристофферсон, Мэттью МакКонахи, Крис Купер, Элизабет Пенья, Рон Кэнэда, Клифтон Джеймс, Фрэнсис МакДорманд, Джо Мортон, ЛаТаня Ричардсон, Стивен Мендилло
Описание: На юге Техаса, в приграничном районе, случайно находят останки человека и по звезде определяют, что это был шериф Чарли Уэйд. Сэм Дидз начинает расследование и выясняет, что одновременно с исчезновением Уэйда пропала крупная сумма денег и к этому мог иметь отношение его отец Бадди Дидз. Возникают противоречивые версии событий, разработка которых приводит к неожиданным результатам.
Sample | IMDB | КиноПоиск
Тип релиза: WEB-DLRip [исх. WEB-DL 720p]
Формат видео: AVI
Видео: 720x288 (2.50:1), 25 fps, XviD build 50, 1222 kbps avg, 0.24 bit/pixel
Аудио 1: 48 kHz, AC3 Dolby Digital, 3/2 (L,C,R,l,r) + LFE ch, 384.00 kbps avg [Russian_MVO]
Аудио 2: 48 kHz, AC3 Dolby Digital, 2/0 (L,R) ch, 192.00 kbps avg [Russian_AVO] - (отдельно)
General
Complete name : D:\Мои релизы\Lone Star_WEB-DLRip_RG_All_Films\Lone Star_WEB-DLRip_RG_All_Films.avi
Format : AVI
Format/Info : Audio Video Interleave
File size : 1.47 GiB
Duration : 2h 9mn
Overall bit rate : 1 616 Kbps
Writing application : VirtualDubMod 1.5.10.3 | www.virtualdub-fr.org || (build 2550/release)
Writing library : VirtualDubMod build 2550/release
Video
ID : 0
Format : MPEG-4 Visual
Format profile : Advanced Simple@L5
Format settings, BVOP : Yes
Format settings, QPel : No
Format settings, GMC : No warppoints
Format settings, Matrix : Custom
Codec ID : XVID
Codec ID/Hint : XviD
Duration : 2h 9mn
Bit rate : 1 223 Kbps
Width : 720 pixels
Height : 288 pixels
Display aspect ratio : 2.500
Frame rate : 25.000 fps
Color space : YUV
Chroma subsampling : 4:2:0
Bit depth : 8 bits
Scan type : Progressive
Compression mode : Lossy
Bits/(Pixel*Frame) : 0.236
Stream size : 1.11 GiB (76%)
Writing library : XviD 1.2.1 (UTC 2008-12-04)
Audio
ID : 1
Format : AC-3
Format/Info : Audio Coding 3
Mode extension : CM (complete main)
Codec ID : 2000
Duration : 2h 9mn
Bit rate mode : Constant
Bit rate : 384 Kbps
Channel(s) : 6 channels
Channel positions : Front: L C R, Side: L R, LFE
Sampling rate : 48.0 KHz
Bit depth : 16 bits
Compression mode : Lossy
Stream size : 357 MiB (24%)
Alignment : Split accross interleaves
Interleave, duration : 40 ms (1.00 video frame)
Interleave, preload duration : 500 ms
Audio 2 (отдельно)
Format : AC-3
Format/Info : Audio Coding 3
Mode extension : CM (complete main)
Duration : 2h 9mn
Bit rate mode : Constant
Bit rate : 192 Kbps
Channel(s) : 2 channels
Channel positions : Front: L R
Sampling rate : 48.0 KHz
Bit depth : 16 bits
Compression mode : Lossy
Stream size : 178 MiB (100%)



Скачать Одинокая.звезда.Звезда.шерифа.Lone.Star.(Джон.Сейлз).[1996.детектив.WEB-DLRip].[MVO]+[AVO(Карцев)].torrent без регистрации
Золото ЗОЛОТАЯ РАЗДАЧА! СКАЧАННОЕ НЕ ЗАСЧИТЫВАЕТСЯ! Золото
Дата: Зарегистрирован   [ Тип: внутренний ] Как тут cкачать?
MAGNET ссылка
MAGNET ссылка


Скачать .torrent

17 KB

Статус: проверено DHT
Скачан: торрент - 93 раз, раздача полностью - 5 раз
Размер: 1,64 GB
Оценка:  5 (Голосов: 1)
Поблагодарили: 2
Поделиться ссылкой на эту раздачу с друзьями:
В контактеFacebookОдноклассникиTwitterLivejournalМой МирLiveinternet
 

 
Показать сообщения:    


Вы не можете начинать темы
Вы не можете отвечать на сообщения
Вы не можете редактировать свои сообщения
Вы не можете удалять свои сообщения
Вы не можете голосовать в опросах
Вы не можете прикреплять файлы к сообщениям
Вы можете скачивать файлы