Loading...
Error

Скачать Невидимка. Хроники Бенджамина Найта / Invisible: The Chronicles of Benjamin Knight / Mandroid 2 (Джек Эрсгард) [1993, боевик, фантастика, DVDRip] [AVO(Леонид Володарский)]+[Oригинал] торрент без регистрации

 
Статистика раздачи
Размер:  1,46 GB   |    Скачан:  108 раз
Сидов:  1  [  0 KB/s  ]  
 
Автор Сообщение

Marsianka

[] 

Невидимка. Хроники Бенджамина Найта / Invisible: The Chronicles of Benjamin Knight / Mandroid 2
Страна: США
Жанр: боевик, фантастика
Год выпуска: 1993
Продолжительность: 01:19:45
Перевод: Авторский (одноголосый закадровый) Леонид Володарский
Cубтитры: нет
Оригинальная аудиодорожка: английский
Режиссер: Джек Эрсгард / Jack Ersgard
В ролях: Брайан Казинс, Дженнифер Нэш, Майкл Делла Фемино, Курт Лоуэнс, Дэвид Кауфман, Алан Оппенхаймер, Аарон Ипале, Джэйк МакКиннон, Даниела Нэйн
Описание: Действие фильма происходит в Румынии. Американский ученый Бенджамин Найт в результате несчастного случая во время научного эксперимента становится невидимым. Вместе со своими коллегами - прикованным к креслу-каталке Уэйдом, миленькой блондинкой Занной и суперроботом Мандроидом, забинтованный в целях конспирации невидимка Бен пытается найти рецепт спасения от собственной прозрачности. А в это время психопат и урод Драго с бандой ублюдков похищает одну за другой юных девушек и заточает в темницу. Схватка между друмя этими командами неизбежна. Неплохо закручено, есть и толика спасительного юмора. Вот только о логике и мотивировках авторам надо было почаще вспоминать. (Иванов М.)

Рип с ДВД5 с CG (вся работа со звуком - sasha20072007 (kosmoaelita) )
Кассетная дорожка находилась в нехорошем состоянии, поэтому были выделены русские фразы и наложены на качеств. англ. материал
За русскую дорожку с VHS спасибо alenavova
Качество видео: DVDRip [DVD5 roma19981998]
Формат видео: AVI
Видео: 640x480 (1.33:1), 23.976 fps, XviD build 50 ~2149 kbps avg, 0.29 bit/pixel
Аудио: 48 kHz, AC3 Dolby Digital, 2/0 (L,R) ch, ~192 kbps Рус.
Аудио 2: 48 kHz, AC3 Dolby Digital, 2/0 (L,R) ch, ~256 kbps
Невидимка. Хроники Бенджамина Найта - Invisible - The Chronicles of Benjamin Knight [by Edich2].avi
Format : AVI
Format/Info : Audio Video Interleave
File size : 1.46 GiB
Duration : 1h 19mn
Overall bit rate : 2 612 Kbps
Movie name : Невидимка. Хроники Бенджамина Найта - Invisible - The Chronicles of Benjamin Knight [by Edich2]
Director : Rip by Edich2
Writing application : VirtualDubMod 1.5.10.2 (build 2540/release)
Comment : RuTracker.org
Video
ID : 0
Format : MPEG-4 Visual
Format profile : Advanced Simple@L5
Format settings, BVOP : 2
Format settings, QPel : No
Format settings, GMC : No warppoints
Format settings, Matrix : Custom
Codec ID : XVID
Codec ID/Hint : XviD
Duration : 1h 19mn
Bit rate : 2 150 Kbps
Width : 640 pixels
Height : 480 pixels
Display aspect ratio : 4:3
Frame rate : 23.976 fps
Color space : YUV
Chroma subsampling : 4:2:0
Bit depth : 8 bits
Scan type : Progressive
Compression mode : Lossy
Bits/(Pixel*Frame) : 0.292
Stream size : 1.20 GiB (82%)
Writing library : XviD 1.2.1 (UTC 2008-12-04)
Audio #1
ID : 1
Format : AC-3
Format/Info : Audio Coding 3
Mode extension : CM (complete main)
Format settings, Endianness : Big
Codec ID : 2000
Duration : 1h 19mn
Bit rate mode : Constant
Bit rate : 192 Kbps
Channel count : 2 channels
Channel positions : Front: L R
Sampling rate : 48.0 KHz
Bit depth : 16 bits
Compression mode : Lossy
Stream size : 110 MiB (7%)
Alignment : Split accross interleaves
Interleave, duration : 42 ms (1.00 video frame)
Interleave, preload duration : 500 ms
Audio #2
ID : 2
Format : AC-3
Format/Info : Audio Coding 3
Mode extension : CM (complete main)
Format settings, Endianness : Big
Codec ID : 2000
Duration : 1h 19mn
Bit rate mode : Constant
Bit rate : 256 Kbps
Channel count : 2 channels
Channel positions : Front: L R
Sampling rate : 48.0 KHz
Bit depth : 16 bits
Compression mode : Lossy
Stream size : 146 MiB (10%)
Alignment : Split accross interleaves
Interleave, duration : 42 ms (1.00 video frame)
Interleave, preload duration : 500 ms



Скачать Невидимка.Хроники.Бенджамина.Найта.Invisible.The.Chronicles.of.Benjamin.Knight.Mandroid.2.(Джек.Эрсгард).[1993.боевик.фантастика.DVDRip].[AVO(Леонид.Володарский)]+[Oригинал].torrent без регистрации
Золото ЗОЛОТАЯ РАЗДАЧА! СКАЧАННОЕ НЕ ЗАСЧИТЫВАЕТСЯ! Золото
Дата: Зарегистрирован   [ Тип: внутренний ] Как тут cкачать?
MAGNET ссылка
MAGNET ссылка


Скачать .torrent

15 KB

Статус: проверено DHT
Скачан: торрент - 108 раз, раздача полностью - 1 раз
Размер: 1,46 GB
Оценка:  - (Голосов: 0)
Поблагодарили: 0
Поделиться ссылкой на эту раздачу с друзьями:
В контактеFacebookОдноклассникиTwitterLivejournalМой МирLiveinternet
 

 
Показать сообщения:    


Вы не можете начинать темы
Вы не можете отвечать на сообщения
Вы не можете редактировать свои сообщения
Вы не можете удалять свои сообщения
Вы не можете голосовать в опросах
Вы не можете прикреплять файлы к сообщениям
Вы можете скачивать файлы