Loading...
Error

Скачать Мессалина, имперская Венера / Мессалина, императрица Венеры / Messalina, imperial Venus / Messalina Venere imperatrice (Витторио Коттафави) [1960, исторический, драма, пеплум, DVDRip] [Sub]+[Oригинал] торрент без регистрации

 
Статистика раздачи
Размер:  1,36 GB   |    Скачан:  132 раза
Сидов:  1  [  0 KB/s  ]  
 
Автор Сообщение

Marsianka

[] 

Мессалина, имперская Венера / Мессалина, императрица Венеры / Messalina, imperial Venus / Messalina Venere imperatrice
Страна: Италия
Жанр: исторический, драма, пеплум
Год выпуска: 1960
Продолжительность: 01:30:37
Перевод: Субтитры Антон Каптелов
Cубтитры: русские
Оригинальная аудиодорожка: английский
Режиссер: Витторио Коттафави / Vittorio Cottafavi
В ролях: Белинда Ли, Спирос Фокас, Карло Джустини, Джанкарло Сбраджа, Джулио Доннини, Артуро Доминичи, Ида Галли, Мино Доро, Анни Горассини, Джулиано Джемма
Описание: Древний Рим, эпоха, когда в стране правили коррупция и предательство, время насилия и жестокости. Молодая весталка Валерия (Белинда Ли) становится супругой императора Клавдия. Ей суждено войти в историю под именем императрицы Мессалины, одной из самых амбициозных, распутных и кровавых повелительниц Рима.



Качество видео: DVDRip
Формат видео: AVI
Видео: 704x288 (2.44:1), 25 fps, XviD build 47 ~1949 kbps avg, 0.38 bit/pixel
Аудио: 48 kHz, MPEG Layer 3, 2 ch, ~192.00 kbps avg
Формат субтитров: softsub (SRT)

Сэмпл
Format : AVI
Format/Info : Audio Video Interleave
File size : 1.36 GiB
Duration : 1h 30mn
Overall bit rate : 2 151 Kbps
Video
ID : 0
Format : MPEG-4 Visual
Format profile : Advanced Simple@L5
Format settings, BVOP : 1
Format settings, QPel : No
Format settings, GMC : No warppoints
Format settings, Matrix : Default (MPEG)
Codec ID : XVID
Codec ID/Hint : XviD
Duration : 1h 30mn
Bit rate : 1 949 Kbps
Width : 704 pixels
Height : 288 pixels
Display aspect ratio : 2.40:1
Frame rate : 25.000 fps
Color space : YUV
Chroma subsampling : 4:2:0
Bit depth : 8 bits
Scan type : Progressive
Compression mode : Lossy
Bits/(Pixel*Frame) : 0.385
Stream size : 1.23 GiB (91%)
Writing library : XviD 1.2.0.dev47 (UTC 2006-11-01)
Audio
ID : 1
Format : MPEG Audio
Format version : Version 1
Format profile : Layer 3
Mode : Joint stereo
Mode extension : MS Stereo
Codec ID : 55
Codec ID/Hint : MP3
Duration : 1h 30mn
Bit rate mode : Constant
Bit rate : 192 Kbps
Channel(s) : 2 channels
Sampling rate : 48.0 KHz
Compression mode : Lossy
Stream size : 124 MiB (9%)
Alignment : Aligned on interleaves
Interleave, duration : 40 ms (1.00 video frame)
Interleave, preload duration : 504 ms
Writing library : LAME3.97
Encoding settings : -m j -V 4 -q 2 -lowpass 18.6 -b 192
106
00:11:03,230 --> 00:11:06,110
- Потому я и хочу, чтобы ты стала моей женой.
- Идем!
107
00:11:26,870 --> 00:11:28,210
Кто ты?
108
00:11:28,690 --> 00:11:30,750
Богиня Веста никогда не одарит тебя любовью.
109
00:11:30,900 --> 00:11:33,320
Но любовь - единственное, ради чего
стоит жить и бороться.
110
00:11:36,650 --> 00:11:38,490
Весьма неразумно входить
в сады Весты!
111
00:11:38,650 --> 00:11:40,350
Если тебя увидят, то немедленно убьют!
Уходи!
112
00:11:40,440 --> 00:11:42,150
Возможно, оно того стоит?
113
00:11:42,790 --> 00:11:44,860
- Как тебя зовут?
- Валерия!
114
00:11:45,330 --> 00:11:46,520
Валерия...
115
00:11:46,720 --> 00:11:49,110
Валерия...
Ты прекрасна, Валерия!
116
00:11:51,460 --> 00:11:52,950
А мое имя - Люциус Максимус.
117
00:11:55,000 --> 00:11:57,580
И, будучи солдатом, я могу любить тебя,
как никто другой.
118
00:12:00,030 --> 00:12:01,140
Уходи!
119
00:12:01,620 --> 00:12:05,010
Будучи солдатом, ты должен погибнуть
на полях сражений, а не в саду Весты!
120
00:12:06,200 --> 00:12:08,400
- Когда я снова смогу увидеть тебя?
- Валерия!
121
00:12:13,370 --> 00:12:14,440
По утрам.
122
00:12:14,830 --> 00:12:16,630
Тогда этот лес безлюден.
123
00:12:19,240 --> 00:12:20,900
Я буду ждать тебя здесь!
124
00:12:26,380 --> 00:12:30,270
Можешь отказаться от предложения императора,
но, принимая жизнь весталки...
125
00:12:30,720 --> 00:12:32,680
...ты должна осознать
этот свой выбор.
126
00:12:32,880 --> 00:12:35,390
А что, если я захочу повести свою жизнь
по другому пути?
127
00:12:36,310 --> 00:12:37,890
Это сделает тебя несчастной.
128
00:12:38,420 --> 00:12:40,900
Оставайся в этом храме, Валерия!
Огромная благодарность larisa547
за исходный ДВД и Антону Каптелову за перевод!



Скачать Мессалина.имперская.Венера.Мессалина.императрица.Венеры.Messalina.imperial.Venus.Messalina.Venere.imperatrice.(Витторио.Коттафави).[1960.исторический.драма.пеплум.DVDRip].[Sub]+[Oригинал].torrent без регистрации
Золото ЗОЛОТАЯ РАЗДАЧА! СКАЧАННОЕ НЕ ЗАСЧИТЫВАЕТСЯ! Золото
Дата: Зарегистрирован   [ Тип: внутренний ] Как тут cкачать?
MAGNET ссылка
MAGNET ссылка


Скачать .torrent

14 KB

Статус: проверено DHT
Скачан: торрент - 132 раз, раздача полностью - 11 раз
Размер: 1,36 GB
Оценка:  - (Голосов: 0)
Поблагодарили: 0
Поделиться ссылкой на эту раздачу с друзьями:
В контактеFacebookОдноклассникиTwitterLivejournalМой МирLiveinternet
 

 
Показать сообщения:    


Вы не можете начинать темы
Вы не можете отвечать на сообщения
Вы не можете редактировать свои сообщения
Вы не можете удалять свои сообщения
Вы не можете голосовать в опросах
Вы не можете прикреплять файлы к сообщениям
Вы можете скачивать файлы