Loading...
Error

Скачать Компьютер для похорон / L'ordinateur des pompes funèbres (Жерар Пирес) [1976, комедия, VHSRip] [DVO]+[Original] торрент без регистрации

 
Статистика раздачи
Размер:  1,37 GB   |    Скачан:  118 раз

Полного источника не было: 23 минуты

 
Автор Сообщение

Marsianka

[] 

Компьютер для похорон / L'ordinateur des pompes funèbres
Страна: Италия, Франция
Жанр: комедия
Год выпуска: 1976
Продолжительность: 01:24:50
Перевод: Профессиональный (двухголосый закадровый) ОРТ
Cубтитры: нет
Оригинальная аудиодорожка: французский
Режиссер: Жерар Пирес / Gérard Pirès
В ролях: Жан-Луи Трентиньян, Мирей Дарк, Бернадетт Лафон, Леа Массари, Клод Пьеплю, Клаудиа Марсани, Бернар Фрессон, Жан Абейе, Анемон
Описание: Служащий страховой компании Фред Малон (Трентиньян) - скучный, не слишком умный, не очень удачливый человек. У него скромный достаток, тесная квартира и стервозная жена Глория, которая считает своего супруга идиотом и кормит его отвратительной соевой кашей. Каждый день, из года в год, мсье Малон старался соответствовать имиджу примерного семьянина и добросовестного работника. Однако, "в одно прекрасное утро" зануда вдруг решает убить свою ненавистную женушку, и тогда его жизнь резко меняется. Появляются азарт и желание действовать, стремление любить и быть любимым, объять необъятное и стать истинно свободным! А тут еще красавица-секретарша, которую унылый прежде Малон не замечал, вдруг отвечает на его внезапный интерес горячностью и страстью.
С большим рвением Малон принимается на служебном суперкомпьютере моделировать ситуации быстрого ухода из жизни супруги, а машина - предлагать различные варианты. В итоге программа помогает "закрыть крышкой гроба" проблему тягостного супружества...
Но Маллон неутомим и с энтузиазмом берется решать подобные "щекотливые вопросы" в жизни своих друзей и знакомых. Ведь он знает, как программировать "компьютер для похорон"…



Доп. информация: Релиз

Качество видео: VHSRip
Формат видео: AVI
Видео: 672x464 (1.45:1), 25 fps, XviD build 50 ~2037 kbps avg, 0.26 bit/pixel

Сэмпл
Аудио: 48 kHz, MPEG Layer 3, 2 ch, ~128.00 kbps avg - русский
Аудио 2: 48 kHz, MPEG Layer 3, 2 ch, ~128.00 kbps avg - французский
Format : AVI
Format/Info : Audio Video Interleave
File size : 1.37 GiB
Duration : 1h 24mn
Overall bit rate : 2 309 Kbps
Video
ID : 0
Format : MPEG-4 Visual
Format profile : Advanced Simple@L5
Format settings, BVOP : 2
Format settings, QPel : No
Format settings, GMC : No warppoints
Format settings, Matrix : Default (MPEG)
Codec ID : XVID
Codec ID/Hint : XviD
Duration : 1h 24mn
Bit rate : 2 038 Kbps
Width : 672 pixels
Height : 464 pixels
Display aspect ratio : 1.448
Frame rate : 25.000 fps
Color space : YUV
Chroma subsampling : 4:2:0
Bit depth : 8 bits
Scan type : Progressive
Compression mode : Lossy
Bits/(Pixel*Frame) : 0.261
Stream size : 1.21 GiB (88%)
Writing library : XviD 1.2.1 (UTC 2008-12-04)
Audio #1
ID : 1
Format : MPEG Audio
Format version : Version 1
Format profile : Layer 3
Codec ID : 55
Codec ID/Hint : MP3
Duration : 1h 24mn
Bit rate mode : Constant
Bit rate : 128 Kbps
Channel(s) : 2 channels
Sampling rate : 48.0 KHz
Compression mode : Lossy
Stream size : 77.7 MiB (6%)
Alignment : Aligned on interleaves
Interleave, duration : 40 ms (1.00 video frame)
Interleave, preload duration : 504 ms
Title : ru
Writing library : LAME3.98.2ЄЄЄЄ
Audio #2
ID : 2
Format : MPEG Audio
Format version : Version 1
Format profile : Layer 3
Codec ID : 55
Codec ID/Hint : MP3
Duration : 1h 24mn
Bit rate mode : Constant
Bit rate : 128 Kbps
Channel(s) : 2 channels
Sampling rate : 48.0 KHz
Compression mode : Lossy
Stream size : 77.7 MiB (6%)
Alignment : Aligned on interleaves
Interleave, duration : 40 ms (1.00 video frame)
Interleave, preload duration : 504 ms
Title : fr



Скачать Компьютер.для.похорон.L'ordinateur.des.pompes.funèbres.(Жерар.Пирес).[1976.комедия.VHSRip].[DVO]+[Original].torrent без регистрации
Золото ЗОЛОТАЯ РАЗДАЧА! СКАЧАННОЕ НЕ ЗАСЧИТЫВАЕТСЯ! Золото
Дата: Зарегистрирован   [ Тип: внутренний ] Как тут cкачать?
MAGNET ссылка
MAGNET ссылка


Скачать .torrent

14 KB

Статус: проверено DHT
Скачан: торрент - 118 раз, раздача полностью - 1 раз
Размер: 1,37 GB
Оценка:  - (Голосов: 0)
Поблагодарили: 0
Поделиться ссылкой на эту раздачу с друзьями:
В контактеFacebookОдноклассникиTwitterLivejournalМой МирLiveinternet
 

 
Показать сообщения:    


Вы не можете начинать темы
Вы не можете отвечать на сообщения
Вы не можете редактировать свои сообщения
Вы не можете удалять свои сообщения
Вы не можете голосовать в опросах
Вы не можете прикреплять файлы к сообщениям
Вы можете скачивать файлы