Loading...
Error

Скачать Миллиард в бильярд / Un milliard dans un billard / Diamonds are Brittle (Николас Жесснер) [1965, криминал, комедия, VHSRip] [VO]+[Oригинал] торрент без регистрации

 
Статистика раздачи
Размер:  1,32 GB   |    Скачан:  102 раза
Сидов:  1  [  0 KB/s  ]  
 
Автор Сообщение

Marsianka

[] 

Миллиард в бильярд / Un milliard dans un billard / Diamonds are Brittle
Страна: Франция, Италия, Германия (ФРГ)
Жанр: криминал, комедия
Год выпуска: 1965
Продолжительность: 01:28:44
Перевод: Одноголосый закадровый SATKUR
Cубтитры: нет
Оригинальная аудиодорожка: французский
Режиссер: Николас Жесснер / Nicolas Gessner
В ролях: Джин Сиберг, Клод Риш, Эльза Мартинелли, Пьер Вернье, Жак Морель, Жан-Поль Мулино, Жак Балютен, Элизабет Фликеншильдт, Франс Румилли, Даниэль Секкальди, Анри Вирложё, Аннет Пуавр, Жак Динам, Жан-Пьер Рамбаль, Жак Санти, Бернар Мюссон, Поль Павель, Ив Арканель, Марсель Гассук
Описание: Международная шайка грабителей готовит ограбление ювелирного магазина в Швейцарии, но их планы нарушает обычный банковский клерк, решивший обмануть бандитов и продумавший свою хитрую комбинацию.


Доп. информация: Любительский одноголосый закадровый SATKUR по субтитрам Антона Каптелова

Качество видео: VHSRip
Формат видео: AVI
Видео: 656x400 (1.64:1), 25 fps, 1734 kbps avg, 0.254 bit/pixel

Сэмпл
Аудио 1: Аудио 1: 48 kHz, AC3 Dolby Digital, 2/0 (L,R) ch, ~192.00 kbps - русский
Аудио 2: Аудио 1: 48 kHz, AC3 Dolby Digital, 2/0 (L,R) ch, ~192.00 kbps - французский
Общее
Полное имя : D:\FILM\F-2014\Disk-35\Un.milliard.dans.un.billard.1965.Fr.[vo.satkur+fr].AC3.Rus\Un.milliard.dans.un.billard.1965.Fr.[vo.satkur+fr].AC3.Rus.avi
Формат : AVI
Формат/Информация : Audio Video Interleave
Размер файла : 1,32 Гбайт
Продолжительность : 1 ч. 28 м.
Общий поток : 2132 Кбит/сек
Программа кодирования : VirtualDubModRus 1.5.10.2 (build 2542/release)
Библиотека кодирования : VirtualDubMod build 2542/release
Видео
Идентификатор : 0
Формат : MPEG-4 Visual
Профиль формата : Simple@L1
Параметр BVOP формата : Нет
Параметр QPel формата : Нет
Параметр GMC формата : Без точки перехода
Параметр матрицы формата : Default (H.263)
Идентификатор кодека : XVID
Идентификатор кодека/Подсказка : XviD
Продолжительность : 1 ч. 28 м.
Битрейт : 1734 Кбит/сек
Ширина : 656 пикселей
Высота : 400 пикселей
Соотношение сторон : 1,640
Частота кадров : 25,000 кадров/сек
Цветовое пространство : YUV
Субдискретизация насыщенности : 4:2:0
Битовая глубина : 8 бит
Тип развёртки : Прогрессивная
Метод сжатия : С потерями
Бит/(Пиксели*Кадры) : 0.264
Размер потока : 1,07 Гбайт (81%)
Библиотека кодирования : Lavc52.84.0
Аудио #1
Идентификатор : 1
Формат : AC-3
Формат/Информация : Audio Coding 3
Расширение режима : CM (complete main)
Параметр Endianness формата : Big
Идентификатор кодека : 2000
Продолжительность : 1 ч. 28 м.
Вид битрейта : Постоянный
Битрейт : 192 Кбит/сек
Каналы : 2 канала
Расположение каналов : Front: L R
Частота : 48,0 КГц
Битовая глубина : 16 бит
Метод сжатия : С потерями
Размер потока : 122 Мбайт (9%)
Выравнивание : Разделение по промежуткам
Продолжительность промежутка : 40 мс. (1,00 видеокадр)
Время предзагрузки промежутка : 500 мс.
Аудио #2
Идентификатор : 2
Формат : AC-3
Формат/Информация : Audio Coding 3
Расширение режима : CM (complete main)
Параметр Endianness формата : Big
Идентификатор кодека : 2000
Продолжительность : 1 ч. 28 м.
Вид битрейта : Постоянный
Битрейт : 192 Кбит/сек
Каналы : 2 канала
Расположение каналов : Front: L R
Частота : 48,0 КГц
Битовая глубина : 16 бит
Метод сжатия : С потерями
Размер потока : 122 Мбайт (9%)
Выравнивание : Разделение по промежуткам
Продолжительность промежутка : 40 мс. (1,00 видеокадр)
Время предзагрузки промежутка : 500 мс.



Скачать Миллиард.в.бильярд.Un.milliard.dans.un.billard.Diamonds.are.Brittle.(Николас.Жесснер).[1965.криминал.комедия.VHSRip].[VO]+[Oригинал].torrent без регистрации
Золото ЗОЛОТАЯ РАЗДАЧА! СКАЧАННОЕ НЕ ЗАСЧИТЫВАЕТСЯ! Золото
Дата: Зарегистрирован   [ Тип: внутренний ] Как тут cкачать?
MAGNET ссылка
MAGNET ссылка


Скачать .torrent

14 KB

Статус: проверено DHT
Скачан: торрент - 102 раз, раздача полностью - 16 раз
Размер: 1,32 GB
Оценка:  - (Голосов: 0)
Поблагодарили: 0
Поделиться ссылкой на эту раздачу с друзьями:
В контактеFacebookОдноклассникиTwitterLivejournalМой МирLiveinternet
 

 
Показать сообщения:    


Вы не можете начинать темы
Вы не можете отвечать на сообщения
Вы не можете редактировать свои сообщения
Вы не можете удалять свои сообщения
Вы не можете голосовать в опросах
Вы не можете прикреплять файлы к сообщениям
Вы можете скачивать файлы