Loading...
Error

Скачать Если наступит завтра / If Tomorrow Comes (Серии 1-3 из 3) (Джерри Лондон / Jerry London) [1986, Мелодрама, приключения, триллер, DVDRip] 2x[AVO] (Леонид Володарский, Василий Горчаков) торрент без регистрации

 
Статистика раздачи
Размер:  4,56 GB   |    Скачан:  140 раз
Сидов:  1  [  0 KB/s  ]  
 
Автор Сообщение

leon030982

[] 

Если наступит завтра / If Tomorrow Comes


Год выпуска: 1986
Страна: США
Жанр: Мелодрама, приключения, триллер
Продолжительность: 05:10:20 (2:12:12 + 01:28:53 + 01:30:09)
Перевод №1: Авторский (одноголосый, закадровый)[Леонид Володарский]
Перевод №2: Авторский (одноголосый, закадровый)[Василий Горчаков]
Cубтитры: нет

Режиссёр: Джерри Лондон / Jerry London

В ролях: Том Беренджер, Мэдлин Смит-Осборн, Лиам Нисон, Джеффри Джонс, Ричард Кили, Сюзан Тирелл, Джек Уэстон, Дэвид Кейт, Джон Лафлин, Сюзан Хесс, Лэйн Смит, Джо Кортез, Джордж Ди Сенцо

Описание: Героиня одноименного бестселлера популярного американского писателя Сиднея Шелдона скромная служащая банка Трэйси Уитни стоит на пороге счастья и успеха. Она обручена с любимым человеком, который, к тому же, баснословно богат и принадлежит к высшим кругам общества. И вот, из-за страшных и нелепых обстоятельств, всё идет прахом: Трэйси оказывается в тюрьме, «подставленная» мафией и преданная любимым. Но её не так-то просто сломить: всю свою железную волю, острый ум и неотразимое женское обаяние она направляет на то, чтобы отомстить…



Качество видео: DVDRip
Формат видео: AVI
Видео кодек: XviD
Аудио кодек: AC3
Видео: XviD build 50, 672x496 (1.35:1), 25 fps, 1697 kbps avg, 0.20 bit/pixel
Аудио: AC3 Dolby Digital, 48 kHz, 2/0 (L,R) ch, 192.00 kbps avg
Аудио2: AC3 Dolby Digital, 48 kHz, 2/0 (L,R) ch, 192.00 kbps avg
За дорожки все дружно благодарим - Mrs_Incognito_1981
Раздача от cinemasonar
Общее
Полное имя : D:\If Tomorrow Comes (Если наступит завтра).Volodarsky.Gorchakov\If Tomorrow Comes (Если наступит завтра).01.Volodarsky.Gorchakov.avi
Формат : AVI
Формат/Информация : Audio Video Interleave
Размер файла : 1,94 Гбайт
Продолжительность : 2 ч. 12 м.
Общий поток : 2096 Кбит/сек
Программа кодирования : VirtualDubMod 1.5.10.3 (build 2550/release)
Библиотека кодирования : VirtualDubMod build 2550/release
Видео
Идентификатор : 0
Формат : MPEG-4 Visual
Профиль формата : Advanced Simple@L5
Параметр BVOP формата : 1
Параметр QPel формата : Нет
Параметр GMC формата : Без точки перехода
Параметр матрицы формата : Выборочная
Идентификатор кодека : XVID
Идентификатор кодека/Подсказка : XviD
Продолжительность : 2 ч. 12 м.
Битрейт : 1698 Кбит/сек
Ширина : 672 пикселя
Высота : 496 пикселей
Соотношение сторон : 4:3
Частота кадров : 25,000 кадров/сек
Цветовое пространство : YUV
Субдискретизация насыщенности : 4:2:0
Битовая глубина : 8 бит
Тип развёртки : Прогрессивная
Метод сжатия : С потерями
Бит/(Пиксели*Кадры) : 0.204
Размер потока : 1,57 Гбайт (81%)
Библиотека кодирования : XviD 1.2.1 (UTC 2008-12-04)
Аудио #1
Идентификатор : 1
Формат : AC-3
Формат/Информация : Audio Coding 3
Расширение режима : CM (complete main)
Параметр Endianness формата : Big
Идентификатор кодека : 2000
Продолжительность : 2 ч. 12 м.
Вид битрейта : Постоянный
Битрейт : 192 Кбит/сек
Каналы : 2 канала
Расположение каналов : Front: L R
Частота : 48,0 КГц
Битовая глубина : 16 бит
Метод сжатия : С потерями
Размер потока : 182 Мбайт (9%)
Выравнивание : Разделение по промежуткам
Продолжительность промежутка : 40 мс. (1,00 видеокадр)
Время предзагрузки промежутка : 500 мс.
Аудио #2
Идентификатор : 2
Формат : AC-3
Формат/Информация : Audio Coding 3
Расширение режима : CM (complete main)
Параметр Endianness формата : Big
Идентификатор кодека : 2000
Продолжительность : 2 ч. 12 м.
Вид битрейта : Постоянный
Битрейт : 192 Кбит/сек
Каналы : 2 канала
Расположение каналов : Front: L R
Частота : 48,0 КГц
Битовая глубина : 16 бит
Метод сжатия : С потерями
Размер потока : 182 Мбайт (9%)
Выравнивание : Разделение по промежуткам
Продолжительность промежутка : 40 мс. (1,00 видеокадр)
Время предзагрузки промежутка : 500 мс.



Скачать Если.наступит.завтра.If.Tomorrow.Comes.(Серии.1-3.из.3).(Джерри.Лондон.Jerry.London).[1986.Мелодрама.приключения.триллер.DVDRip].2x[AVO].(Леонид.Володарский.Василий.Горчаков).torrent без регистрации
Золото ЗОЛОТАЯ РАЗДАЧА! СКАЧАННОЕ НЕ ЗАСЧИТЫВАЕТСЯ! Золото
Дата: Зарегистрирован   [ Тип: внутренний ] Как тут cкачать?
MAGNET ссылка
MAGNET ссылка


Скачать .torrent

24 KB

Статус: проверено DHT
Скачан: торрент - 140 раз, раздача полностью - 52 раз
Размер: 4,56 GB
Оценка:  - (Голосов: 0)
Поблагодарили: 1
Поделиться ссылкой на эту раздачу с друзьями:
В контактеFacebookОдноклассникиTwitterLivejournalМой МирLiveinternet
 

 
Показать сообщения:    


Вы не можете начинать темы
Вы не можете отвечать на сообщения
Вы не можете редактировать свои сообщения
Вы не можете удалять свои сообщения
Вы не можете голосовать в опросах
Вы не можете прикреплять файлы к сообщениям
Вы можете скачивать файлы