Loading...
Error

Скачать Фарго / Fargo (Полный 1-ый сезон) (Мэтт Шекман, Скотт Уинант, Адам Бернштейн) [2014, драма, криминал, HDTVRip] [ENG] + [Sub] (Rus, Eng) торрент без регистрации

 
Статистика раздачи
Размер:  4,14 GB   |    Скачан:  3232 раза
Сидов:  1  [  0 KB/s  ]  
 
Автор Сообщение

leon030982

[] 



Фарго / Fargo


«Aw jeez, here we go again»

Год выпуска: 2014
Страна: США
Жанр: драма, криминал
Продолжительность: ~ 01:08:36
Перевод: Русские субтитры [NotaBenoid]
Субтитры: русские (внешние, srt)

Режиссёры: Мэтт Шекман, Скотт Уинант, Адам Бернштейн
В ролях: Мартин Фриман, Билли Боб Торнтон, Боб Оденкёрк, Джули Энн Эмери, Колин Хэнкс, Джои Кинг, Оливер Платт, Кейт Уолш, Джошуа Клоуз, Спенсер Древер
Описание: Бродяга по имени Лорн приезжает в небольшой городок в штате Миннесота. Он поражает местное население своей злобой и жестокостью, а также подчиняет себе страхового агента Лестера…


Качество: HDTVRip
Формат: AVI
Видео кодек: XvID
Аудио кодек: XviD
Видео: 624x350 (1.78:1), 23.976 fps, XviD MPEG-4 ~898 kbps avg, 0.17 bit/pixel
Аудио: 48 kHz, MPEG Layer 3, 2 ch, ~128.00 kbps avg
General
Complete name : E:\Fargo.S01E01.HDTVRip\Fargo.S01E01.HDTVRip..avi
Format : AVI
Format/Info : Audio Video Interleave
File size : 508 MiB
Duration : 1h 8mn
Overall bit rate : 1 036 Kbps
Writing library : VirtualDub build 35491/release

Video
ID : 0
Format : MPEG-4 Visual
Format profile : Advanced Simple@L5
Format settings, BVOP : 2
Format settings, QPel : No
Format settings, GMC : No warppoints
Format settings, Matrix : Default (H.263)
Muxing mode : Packed bitstream
Codec ID : XVID
Codec ID/Hint : XviD
Duration : 1h 8mn
Bit rate : 898 Kbps
Width : 624 pixels
Height : 350 pixels
Display aspect ratio : 16:9
Frame rate : 23.976 fps
Color space : YUV
Chroma subsampling : 4:2:0
Bit depth : 8 bits
Scan type : Progressive
Compression mode : Lossy
Bits/(Pixel*Frame) : 0.172
Stream size : 441 MiB (87%)
Writing library : XviD 64

Audio
ID : 1
Format : MPEG Audio
Format version : Version 1
Format profile : Layer 3
Mode : Joint stereo
Mode extension : MS Stereo
Codec ID : 55
Codec ID/Hint : MP3
Duration : 1h 8mn
Bit rate mode : Constant
Bit rate : 128 Kbps
Channel(s) : 2 channels
Sampling rate : 48.0 KHz
Compression mode : Lossy
Stream size : 62.8 MiB (12%)
Alignment : Split accross interleaves
Interleave, duration : 42 ms (1.00 video frame)
Interleave, preload duration : 500 ms

Цитата:

10-ти серийный сериал основанный на фильме братьев Коэн, которые выступили исполнительными продюсерами сериала.Но история в сериале новая.
Внимание! Раздача ведётся путём добавления новых серий; при каждом добавлении создётся новый торрент. Чтобы начать докачку новой серии, пользователям необходимо сделать следующее:Остановить скачивание.
Удалить старый торрент у себя из клиента (старые серии удалять не надо).
Скачать новый торрент и запустить его у себя в клиенте вместо старого, при этом указать клиенту путь в старую папку куда и должно происходить скачивание новых серий.Ваш клиент при этом должен произвести хеширование (проверку) старой папки (если не производит сам - помогите ему сделать это), и будет докачивать только те серии которых у вас ещё нет. Старые серии при этом не удаляются, а продолжают раздаваться!
Eсли вы уже удалили старые серии, то предотвратить повторную закачку старых серий можно, отжав галочку в соответсвующих местах при запуске нового торрента. По возможности, желательно не удалять старые серии как можно дольше чтобы релизёр не столько продолжал раздавать старые серии, а смог сконцентрироваться на новых.

Добавлена 9-10-я серия!Сезон завершен



Скачать Фарго.Fargo.(Полный.1-ый.сезон).(Мэтт.Шекман.Скотт.Уинант.Адам.Бернштейн).[2014.драма.криминал.HDTVRip].[ENG].+.[Sub].(Rus.Eng).torrent без регистрации
Золото ЗОЛОТАЯ РАЗДАЧА! СКАЧАННОЕ НЕ ЗАСЧИТЫВАЕТСЯ! Золото
Дата: Зарегистрирован   [ Тип: внутренний ] Как тут cкачать?
MAGNET ссылка
MAGNET ссылка


Скачать .torrent

12 KB

Статус: проверено DHT
Скачан: торрент - 3232 раз, раздача полностью - 5 раз
Размер: 4,14 GB
Оценка:  5 (Голосов: 2)
Поблагодарили: 5
Поделиться ссылкой на эту раздачу с друзьями:
В контактеFacebookОдноклассникиTwitterLivejournalМой МирLiveinternet
 

 

leon030982

[] 

Цитата:

Заменены субтитры!Скачавших просьба перехешировать раздачу и докачать 87кб
 

leon030982

[] 

Код:

Добавлена 2-я серия!
 

leon030982

[] 

Цитата:

Субтитры заменены на более качественные!Скачавших просьба перехешировать раздачу и докачать 65 кб
 

leon030982

[] 

Код:

Добавлена 3-я серия!
 

leon030982

[] 

Цитата:

Добавлена 4-я серия!
 

leon030982

[] 

Добавлена 5-я серия!
 

leon030982

[] 

Цитата:

Добавлена 6-я серия!
 

leon030982

[] 

Добавлена 7-я серия!
 

leon030982

[] 

Добавлена 8-я серия! az
 

leon030982

[] 

Добавлена 9-10-я серия!Сезон завершен az
 
Показать сообщения:    


Вы не можете начинать темы
Вы не можете отвечать на сообщения
Вы не можете редактировать свои сообщения
Вы не можете удалять свои сообщения
Вы не можете голосовать в опросах
Вы не можете прикреплять файлы к сообщениям
Вы можете скачивать файлы