Loading...
Error

Скачать Надеемся, что будет девочка / Speriamo che sia femmina (Марио Моничелли) [1985, драма, мелодрама, комедия, DVDRip] [Sub (Rus) (Антон Каптелов)] + [Original (Ita)] торрент без регистрации

 
Статистика раздачи
Размер:  1,52 GB   |    Скачан:  99 раз
Сидов:  1  [  0 KB/s  ]  
 
Автор Сообщение

Marsianka

[] 

Надеемся, что будет девочка / Speriamo che sia femmina
Страна: Италия, Франция
Жанр: драма, мелодрама, комедия
Год выпуска: 1985
Продолжительность: 01:54:18
Перевод: Субтитры Антон Каптелов
Cубтитры: русские
Оригинальная аудиодорожка: итальянский
Режиссер: Марио Моничелли / Mario Monicelli
В ролях: Лив Ульман, Катрин Денёв, Филипп Нуаре, Джулиана Де Сио, Стефания Сандрелли, Бернар Блие, Джулиано Джемма, Атина Ченчи, Паоло Эндель, Лукреция Ланте Делла Ровере
Описание: Хитроумные переплетения внешне банальных семейно-бытовых проблем делают ткань фильма восхитительно изощренной. Особенно, если в ролях такое потрясающее актерское созвездие. Печальное и трагическое, трогательное и смешное — все как в жизни. Самый яркий персонаж — вышедший из ума дед Гуго. Он живет в собственной системе координат, доставляя домашним массу проблем. Из-за его рассеянности погибает граф Леонардо, с которым был связан план выгодной продажи пришедшего в упадок имения. А дед этого даже не заметил и не запомнил. Единственное, что он остро ощущает — в доме престарелых жизнь невыносима…



Качество видео: DVDRip
Формат видео: AVI
Видео: 688x416 (1.65:1), 25 fps, XviD build 46 ~1891 kbps avg, 0.26 bit/pixel
Аудио: Audio: 48 kHz, AC3 Dolby Digital, 2/0 (L,R) ch, ~192 kbps
Формат субтитров: softsub (SRT) Сэмпл
Format : AVI
Format/Info : Audio Video Interleave
File size : 1.52 GiB
Duration : 1h 54mn
Overall bit rate : 1 903 Kbps
Video
ID : 0
Format : MPEG-4 Visual
Format profile : Simple@L3
Format settings, BVOP : No
Format settings, QPel : No
Format settings, GMC : No warppoints
Format settings, Matrix : Default (H.263)
Codec ID : XVID
Codec ID/Hint : XviD
Duration : 1h 54mn
Source duration : 1h 54mn
Bit rate : 1 700 Kbps
Width : 688 pixels
Height : 416 pixels
Display aspect ratio : 1.654
Frame rate : 25.000 fps
Color space : YUV
Chroma subsampling : 4:2:0
Bit depth : 8 bits
Scan type : Progressive
Compression mode : Lossy
Bits/(Pixel*Frame) : 0.238
Stream size : 1.36 GiB (89%)
Writing library : XviD 1.1.2 (UTC 2006-11-01)
Audio
ID : 1
Format : AC-3
Format/Info : Audio Coding 3
Mode extension : CM (complete main)
Codec ID : 2000
Duration : 1h 54mn
Bit rate mode : Constant
Bit rate : 192 Kbps
Channel(s) : 2 channels
Channel positions : Front: L R
Sampling rate : 48.0 KHz
Bit depth : 16 bits
Compression mode : Lossy
Stream size : 157 MiB (10%)
Alignment : Aligned on interleaves
Interleave, duration : 32 ms (0.80 video frame)
111
00:06:40,620 --> 00:06:42,120
Это настоящая золотая жила!
112
00:06:42,364 --> 00:06:43,965
Мы тогда все сможем изменить
свой образ жизни.
113
00:06:44,221 --> 00:06:45,301
Да-да...
114
00:06:45,787 --> 00:06:48,384
Слушай... С первой же прибыли,
я обещаю...
115
00:06:49,061 --> 00:06:51,829
Я построю вон там местечко...
Прямо вон там - для тебя!
116
00:06:52,931 --> 00:06:54,316
Ну... не глупи!
117
00:06:54,833 --> 00:06:56,534
Так ты сможешь заниматься
сразу двумя предприятиями одновременно!
118
00:06:56,977 --> 00:06:58,805
Одновременно и совмещенно!
119
00:06:59,258 --> 00:07:02,684
Во-первых, грязелечением,
а во-вторых - лечебной гимнастикой!
120
00:07:02,894 --> 00:07:04,587
И все станут ездить сюда!
121
00:07:04,966 --> 00:07:06,524
С ревматизмами, с артритами...
122
00:07:06,729 --> 00:07:08,105
Хромые и горбатые!
123
00:07:08,261 --> 00:07:10,499
Все лошадки! Понимаешь?
124
00:07:11,374 --> 00:07:12,976
Конечно! После их падений...
125
00:07:13,375 --> 00:07:15,348
А ты будешь их восстанавливать,
на Горячих Источниках!
126
00:07:15,442 --> 00:07:16,917
И тогда они смогут начать все сначала!
127
00:07:17,198 --> 00:07:19,051
Очень хорошо! Браво!
Круг замкнулся!
128
00:07:20,391 --> 00:07:21,715
А, вот и мама!
129
00:07:25,832 --> 00:07:27,429
Это очень важно для меня, Мальвина.
130
00:07:28,223 --> 00:07:29,586
Есть такая мечта.
131
00:07:29,825 --> 00:07:31,312
И она очень важна для меня.
132
00:07:35,970 --> 00:07:37,679
- Как дела, Леонардо?
- Привет!
Огромное спасибо Антону Каптелову
за перевод!



Скачать Надеемся.что.будет.девочка.Speriamo.che.sia.femmina.(Марио.Моничелли).[1985.драма.мелодрама.комедия.DVDRip].[Sub.(Rus).(Антон.Каптелов)].+.[Original.(Ita)].torrent без регистрации
Золото ЗОЛОТАЯ РАЗДАЧА! СКАЧАННОЕ НЕ ЗАСЧИТЫВАЕТСЯ! Золото
Дата: Зарегистрирован   [ Тип: внутренний ] Как тут cкачать?
MAGNET ссылка
MAGNET ссылка


Скачать .torrent

16 KB

Статус: проверено DHT
Скачан: торрент - 99 раз, раздача полностью - 1 раз
Размер: 1,52 GB
Оценка:  - (Голосов: 0)
Поблагодарили: 0
Поделиться ссылкой на эту раздачу с друзьями:
В контактеFacebookОдноклассникиTwitterLivejournalМой МирLiveinternet
 

 
Показать сообщения:    


Вы не можете начинать темы
Вы не можете отвечать на сообщения
Вы не можете редактировать свои сообщения
Вы не можете удалять свои сообщения
Вы не можете голосовать в опросах
Вы не можете прикреплять файлы к сообщениям
Вы можете скачивать файлы