Loading...
Error

Скачать Редкая порода / A Breed Apart (Филипп Мора) [1984, драма, боевик, DVDRip] [AVO(Андрей Гаврилов)] торрент без регистрации

 
Статистика раздачи
Размер:  1,46 GB   |    Скачан:  106 раз
Сидов:  1  [  0 KB/s  ]  
 
Автор Сообщение

Marsianka

[] 

Редкая порода / A Breed Apart ( Uncut )
Страна: США
Жанр: Драма, боевик
Год выпуска: 1984
Продолжительность: 01:36:48
Перевод: Авторский (одноголосый закадровый) - Андрей Гаврилов
Cубтитры: нет
Режиссер: Филипп Мора / Philippe Mora
В ролях: Рутгер Хауэр, Пауэрс Бут, Кэтлин Тёрнер, Дональд Плезенс, Брайон Джеймс, Джон Деннис Джонстон, Джейн Бентцен, Энди Фенвик, Дастин Лекейт, С.К. Бибби
Описание: Одержимый коллекционер за баснословную сумму нанимает альпиниста Майка, чтобы тот достал ему кладку яиц орла редчайшей породы. Майк приезжает на живописный частный островок, который принадлежит Джиму, когда-то воевавшему во Вьетнаме, потом потерявшему жену и сынишку.
Теперь Джим живёт отшельником и охраняет покой животных от обнаглевших охотников- браконьеров. Сложные отношения связывают Джима и Стеллу, владелицу маленького магазинчика рыболовных принадлежностей.
Она и её сын всем сердцем тянутся к Джиму… Настоящую войну браконьеры объявляют Джиму, но ему на помощь приходит Майк...



Качество видео: DVDRip
Формат видео: AVI
Видео: XviD, 720x384 (1,85:1), 25.00 fps, 1963 kbps avg, 0.284 bit/pixel
Аудио: AC3 Dolby Digital, 48000Hz, 2/0 (L,R) ch, 192.00 kbps avg
Сэмпл
Общее
Полное имя : C:\Users\юзер\Downloads\Редкая порода\A Breed Apart (Редкая порода) Gavrilov.avi
Формат : AVI
Формат/Информация : Audio Video Interleave
Размер файла : 1,46 Гбайт
Продолжительность : 1 ч. 36 м.
Общий поток : 2164 Кбит/сек
Программа кодирования : VirtualDubMod 1.5.10.3 (build 2550/release)
Библиотека кодирования : VirtualDubMod build 2550/release
Видео
Идентификатор : 0
Формат : MPEG-4 Visual
Профиль формата : Advanced Simple@L5
Параметр BVOP формата : 1
Параметр QPel формата : Нет
Параметр GMC формата : Без точки перехода
Параметр матрицы формата : Default (MPEG)
Идентификатор кодека : XVID
Идентификатор кодека/Подсказка : XviD
Продолжительность : 1 ч. 36 м.
Битрейт : 1963 Кбит/сек
Ширина : 720 пикселей
Высота : 384 пикселя
Соотношение сторон : 1,85:1
Частота кадров : 25,000 кадров/сек
Цветовое пространство : YUV
Субдискретизация насыщенности : 4:2:0
Битовая глубина : 8 бит
Тип развёртки : Прогрессивная
Метод сжатия : С потерями
Бит/(Пиксели*Кадры) : 0.284
Размер потока : 1,33 Гбайт (91%)
Библиотека кодирования : XviD 1.2.1 (UTC 2008-12-04)
Аудио
Идентификатор : 1
Формат : AC-3
Формат/Информация : Audio Coding 3
Расширение режима : CM (complete main)
Параметр Endianness формата : Big
Идентификатор кодека : 2000
Продолжительность : 1 ч. 36 м.
Вид битрейта : Постоянный
Битрейт : 192 Кбит/сек
Каналы : 2 канала
Расположение каналов : Front: L R
Частота : 48,0 КГц
Битовая глубина : 16 бит
Метод сжатия : С потерями
Размер потока : 133 Мбайт (9%)
Выравнивание : Разделение по промежуткам
Продолжительность промежутка : 40 мс. (1,00 видеокадр)
Время предзагрузки промежутка : 500 мс.



Скачать Редкая.порода.A.Breed.Apart.(Филипп.Мора).[1984.драма.боевик.DVDRip].[AVO(Андрей.Гаврилов)].torrent без регистрации
Золото ЗОЛОТАЯ РАЗДАЧА! СКАЧАННОЕ НЕ ЗАСЧИТЫВАЕТСЯ! Золото
Дата: Зарегистрирован   [ Тип: внутренний ] Как тут cкачать?
MAGNET ссылка
MAGNET ссылка


Скачать .torrent

15 KB

Статус: проверено DHT
Скачан: торрент - 106 раз, раздача полностью - 17 раз
Размер: 1,46 GB
Оценка:  - (Голосов: 0)
Поблагодарили: 1
Поделиться ссылкой на эту раздачу с друзьями:
В контактеFacebookОдноклассникиTwitterLivejournalМой МирLiveinternet
 

 
Показать сообщения:    


Вы не можете начинать темы
Вы не можете отвечать на сообщения
Вы не можете редактировать свои сообщения
Вы не можете удалять свои сообщения
Вы не можете голосовать в опросах
Вы не можете прикреплять файлы к сообщениям
Вы можете скачивать файлы