Loading...
Error

Скачать Мой любовник мой сын / My Lover My Son / L'Inceste (Джон Ньюленд) [1970, драма, эдипов комплекс, VHSRip] [VO] + [Original (Eng)] торрент без регистрации

 
Статистика раздачи
Размер:  1,29 GB   |    Скачан:  158 раз
Сидов:  1  [  0 KB/s  ]  
 
Автор Сообщение

Marsianka

[] 

Мой любовник мой сын / My Lover My Son / L'Inceste
Страна: США, Великобритания
Жанр: драма, эдипов комплекс
Год выпуска: 1970
Продолжительность: 01:35:26
Перевод: Одноголосый закадровый перевод ССК+
Cубтитры: нет
Оригинальная аудиодорожка: английский
Режиссер: Джон Ньюленд / John Newland
В ролях:
Роми Шнайдер, Дональд Хьюстон, Дэннис Уотерман, Патриция Брэйк, Питер Сэллис, Уильям Декстер, Александра Бастедо, Марк Хоукинс, Мэгги Райт, Джанет Браун
Описание:
Франческа тяжело переживает трагическую гибель своего любовника Мейсера. Она замужем за миллионером Робертом, которого не любит. Повзрослевший сын Джеймс (от погибшего любовника) живёт с ними в их поместье, и Франческа невольно переносит свои любовные переживания на сына, напоминающего ей Мейсера. Намечающийся инцест, естественно, не может не вызвать протеста её законного супруга. Развязка фильма приводит одного члена семьи на скамью подсудимых, а другого - в могилу.
Легкий и незатейливый фильм, который стоит смотреть ради прекрасной Роми!





Качество видео: VHSRip
Формат видео: AVI
Видео: Хvid, 640 х 480, 1.667, 25.000 fps, 1 536 Kbps

Сэмпл
Аудио: MP3, 44.1 KHz, 192 Kbps, 2 channels, русский
Аудио 2: MP3, 44.1 KHz, 192 Kbps, 2 channels, английский
General
Complete name : F:\РАЗДАЧИ\My Lover My Son 1969\Мой любовник мой сын 1969\Мой любовник мой сын 1969.avi
Format : AVI
Format/Info : Audio Video Interleave
File size : 1.29 GiB
Duration : 1h 35mn
Overall bit rate : 1 937 Kbps
Writing application : VirtualDubMod 1.5.10.2 (build 2540/release)
Writing library : VirtualDubMod build 2540/release
Video
ID : 0
Format : xvid
Codec ID : xvid
Duration : 1h 35mn
Bit rate : 1 536 Kbps
Width : 640 pixels
Height : 480 pixels
Display aspect ratio : 1.667
Frame rate : 25.000 fps
Bits/(Pixel*Frame) : 0.200
Stream size : 1.02 GiB (79%)
Audio #1
ID : 1
Format : MPEG Audio
Format version : Version 1
Format profile : Layer 3
Codec ID : 55
Codec ID/Hint : MP3
Duration : 1h 35mn
Bit rate mode : Constant
Bit rate : 192 Kbps
Channel(s) : 2 channels
Sampling rate : 44.1 KHz
Stream size : 131 MiB (10%)
Alignment : Split accross interleaves
Interleave, duration : 40 ms (1.00 video frame)
Interleave, preload duration : 500 ms
Audio #2
ID : 2
Format : MPEG Audio
Format version : Version 1
Format profile : Layer 3
Mode : Joint stereo
Mode extension : MS Stereo
Codec ID : 55
Codec ID/Hint : MP3
Duration : 1h 35mn
Bit rate mode : Constant
Bit rate : 192 Kbps
Channel(s) : 2 channels
Sampling rate : 44.1 KHz
Stream size : 131 MiB (10%)
Alignment : Aligned on interleaves
Interleave, duration : 26 ms (0.65 video frame)
Interleave, preload duration : 522 ms
Writing library : LAME3.98.4



Скачать Мой.любовник.мой.сын.My.Lover.My.Son.L'Inceste.(Джон.Ньюленд).[1970.драма.эдипов.комплекс.VHSRip].[VO].+.[Original.(Eng)].torrent без регистрации
Золото ЗОЛОТАЯ РАЗДАЧА! СКАЧАННОЕ НЕ ЗАСЧИТЫВАЕТСЯ! Золото
Дата: Зарегистрирован   [ Тип: внутренний ] Как тут cкачать?
MAGNET ссылка
MAGNET ссылка


Скачать .torrent

52 KB

Статус: проверено DHT
Скачан: торрент - 158 раз, раздача полностью - 13 раз
Размер: 1,29 GB
Оценка:  - (Голосов: 0)
Поблагодарили: 0
Поделиться ссылкой на эту раздачу с друзьями:
В контактеFacebookОдноклассникиTwitterLivejournalМой МирLiveinternet
 

 
Показать сообщения:    


Вы не можете начинать темы
Вы не можете отвечать на сообщения
Вы не можете редактировать свои сообщения
Вы не можете удалять свои сообщения
Вы не можете голосовать в опросах
Вы не можете прикреплять файлы к сообщениям
Вы можете скачивать файлы