Loading...
Error

/ The King of Comedy ( ) [1982, , , BDRip] [DVO]+[AVO()]

 
1,46 GB   |    :  123

: 27

 

Marsianka

[] 

/ The King of Comedy

: 1982
: / 20th Century Fox Film Corporation
: ,
: 01:48:59
:
/ Martin Scorsese
:
(Rupert Pupkin), (Jerry Langford), (Rita Keane), (Masha), (Cathy Long), (Ed Herlihy), (Band leader), (Stage Door Fan), (Stage Door Fan), (Stage Door Fan)
:
, . , , . .
, , . .
, , , , , -


: BDRip [BDRemux]
: AVI
: 720x384 (1.88:1), 23.976 fps, XviD build 73 ~1520 kbps avg, 0.23 bit/pixel
(1): ( )
(2): ( )
C:
#1: 48 kHz, AC3 Dolby Digital, 2/0 (L,R) ch, ~192.00 kbps avg (DVO)
#2: 48 kHz, AC3 Dolby Digital, 2/0 (L,R) ch, ~192.00 kbps avg (AVO)

:

General
Complete name : D:\Korol`_komedii_1982_BDRip_by_Dalemake.avi
Format : AVI
Format/Info : Audio Video Interleave
File size : 1.46 GiB
Duration : 1h 48mn
Overall bit rate : 1 919 Kbps
Writing application : VirtualDubMod 1.5.10.3 | www.virtualdub-fr.org || (build 2550/release)
Writing library : VirtualDubMod build 2550/release
Video
ID : 0
Format : MPEG-4 Visual
Format profile : Advanced Simple@L5
Format settings, BVOP : 1
Format settings, QPel : No
Format settings, GMC : No warppoints
Format settings, Matrix : Custom
Codec ID : XVID
Codec ID/Hint : XviD
Duration : 1h 48mn
Bit rate : 1 521 Kbps
Width : 720 pixels
Height : 384 pixels
Display aspect ratio : 1.85:1
Frame rate : 23.976 fps
Color space : YUV
Chroma subsampling : 4:2:0
Bit depth : 8 bits
Scan type : Progressive
Compression mode : Lossy
Bits/(Pixel*Frame) : 0.229
Stream size : 1.16 GiB (79%)
Writing library : XviD 73
Audio #1
ID : 1
Format : AC-3
Format/Info : Audio Coding 3
Mode extension : CM (complete main)
Format settings, Endianness : Big
Codec ID : 2000
Duration : 1h 48mn
Bit rate mode : Constant
Bit rate : 192 Kbps
Channel(s) : 2 channels
Channel positions : Front: L R
Sampling rate : 48.0 KHz
Bit depth : 16 bits
Compression mode : Lossy
Stream size : 150 MiB (10%)
Alignment : Split accross interleaves
Interleave, duration : 42 ms (1.00 video frame)
Interleave, preload duration : 500 ms
Audio #2
ID : 2
Format : AC-3
Format/Info : Audio Coding 3
Mode extension : CM (complete main)
Format settings, Endianness : Big
Codec ID : 2000
Duration : 1h 48mn
Bit rate mode : Constant
Bit rate : 192 Kbps
Channel(s) : 2 channels
Channel positions : Front: L R
Sampling rate : 48.0 KHz
Bit depth : 16 bits
Compression mode : Lossy
Stream size : 150 MiB (10%)
Alignment : Split accross interleaves
Interleave, duration : 42 ms (1.00 video frame)
Interleave, preload duration : 500 ms




..The.King.of.Comedy.(.).[1982...BDRip].[DVO]+[AVO()].torrent
  ! ! 
:   [ : ] c?
MAGNET
MAGNET


.torrent

15 KB

: DHT
: - 123 , - 17
: 1,46 GB
- (: 0)
: 0
:
 FacebookTwitterLivejournal Liveinternet
 

 
: