Loading...
Error

Скачать Папа-призрак / Ghost Dad (Сидни Пуатье) [1990, фэнтези, комедия, семейный, DVDRip-AVC] [MVO] торрент без регистрации

 
Статистика раздачи
Размер:  1,45 GB   |    Скачан:  104 раза
Сидов:  1  [  0 KB/s  ]  
 
Автор Сообщение

Marsianka

[] 

Страна: США
Производство: SAH Enterprises, Universal Pictures
Жанр: фэнтези, комедия, семейный
Год выпуска: 1990
Продолжительность: 01:26:42
Перевод: Профессиональный (многоголосый, закадровый)
Оригинальная аудиодорожка: нет
Cубтитры: нет

Режиссер: Сидни Пуатье / Sidney Poitier

В ролях: Билл Косби, Кимберли Расселл, Денис Николас, Йен Баннен, Кристин Эберсоул, Бэрри Корбин, Салим Грант, Брук Фонтейн, Дэкин Мэтьюз, Дана Эшбрук...
Описание: У вдовца Эллиота трое детей: Дэнни, Аманда и старшая дочь Дайен. Эллиот настоящий трудоголик, он работает с утра и до ночи, чтобы обеспечить семью, а воспитанием младших детей занимается Дайен. Каждый раз, когда дети просят отца сводить их в зоопарк или в кино, но отвечает: «Завтра», и каждый раз откладывает запланированный поход на неопределенный срок. Он всегда живет будущим, не думая о настоящем. Например, он очень надеется на четверг: в этот день должна состояться крупная сделка, которая, как он думает, изменит его жизнь к лучшему. Но человек предполагает, а бог располагает. Накануне долгожданного дня Эллиот берет такси. Водитель оказывается помешанным сатанистом и, разглядев в лице Эллиота черты то ли ангела, то ли дьявола, на бешенной скорости сбрасывает машину с моста. Эллиот не погибает, а впадает в состояние комы. Теперь у Эллиота нет спасительного «завтра», его душа располагает считанными часами для того, чтобы исправить ошибки, совершенные при жизни, закончить все финансовые дела и обеспечить материальное благосостояние своих детей. Итак, папочка привидение возвращается домой. Он может спокойно проходить сквозь предметы и остается невидимкой при дневном свете, увидеть его можно только в затемненной комнате. Не теряя ни минуты, Эллиот начинает приводить в порядок финансовые дела семьи, но вскоре он начинает понимать, что для детей важнее всего на свете его любовь и его присутствие рядом с ними

Исходник: DVD9
Тип релиза: DVDRip-AVC
Контейнер: MKV

Видео: 720x480@720x540 (4:3), 23.976 fps, H264 ~ 2099 kbps avg, 0.253 bit/pixel
Аудио: 48 kHz, Dolby Digital AC3 5.1, 384 kbps

Раздача от:

Общее
Полное имя : Papa-prizrak.1990.DVDRip-AVC_[New-team]_by_AVP_Studio.mkv
Формат : Matroska
Версия формата : Version 2
Размер файла : 1,45 Гбайт
Продолжительность : 1 ч. 23 м.
Общий поток : 2485 Кбит/сек
Дата кодирования : UTC 2014-04-16 16:32:45
Программа кодирования : mkvmerge v6.1.0 ('Old Devil') built on Mar 4 2013 09:10:42
Библиотека кодирования : libebml v1.3.0 + libmatroska v1.4.0

Видео
Идентификатор : 1
Формат : AVC
Формат/Информация : Advanced Video Codec
Профиль формата : High@L4.1
Параметр CABAC формата : Да
Параметр ReFrames формата : 8 кадров
Идентификатор кодека : V_MPEG4/ISO/AVC
Продолжительность : 1 ч. 23 м.
Битрейт : 2099 Кбит/сек
Ширина : 720 пикселей
Высота : 480 пикселей
Соотношение сторон : 4:3
Режим частоты кадров : Постоянный
Частота кадров : 23,976 кадра/сек
Стандарт вещания : NTSC
Цветовое пространство : YUV
Субдискретизация насыщенности : 4:2:0
Битовая глубина : 8 бит
Тип развёртки : Прогрессивная
Бит/(Пиксели*Кадры) : 0.253
Размер потока : 1,20 Гбайт (83%)
Библиотека кодирования : x264 core 138 r2356 a1d3d17
Настройки программы : cabac=1 / ref=8 / deblock=1:-2:-1 / analyse=0x3:0x113 / me=umh / subme=10 / psy=1 / psy_rd=1.00:0.05 / mixed_ref=1 / me_range=32 / chroma_me=1 / trellis=2 / 8x8dct=1 / cqm=0 / deadzone=21,11 / fast_pskip=0 / chroma_qp_offset=-3 / threads=3 / lookahead_threads=1 / sliced_threads=0 / nr=0 / decimate=0 / interlaced=0 / bluray_compat=0 / constrained_intra=0 / bframes=8 / b_pyramid=2 / b_adapt=2 / b_bias=0 / direct=3 / weightb=1 / open_gop=0 / weightp=2 / keyint=240 / keyint_min=24 / scenecut=40 / intra_refresh=0 / rc_lookahead=40 / rc=2pass / mbtree=1 / bitrate=2099 / ratetol=1.0 / qcomp=0.60 / qpmin=0 / qpmax=69 / qpstep=4 / cplxblur=20.0 / qblur=0.5 / ip_ratio=1.40 / aq=1:1.00
Default : Да
Forced : Нет

Аудио
Идентификатор : 2
Формат : AC-3
Формат/Информация : Audio Coding 3
Расширение режима : CM (complete main)
Параметр Endianness формата : Big
Идентификатор кодека : A_AC3
Продолжительность : 1 ч. 23 м.
Вид битрейта : Постоянный
Битрейт : 384 Кбит/сек
Каналы : 6 каналов
Расположение каналов : Front: L C R, Side: L R, LFE
Частота : 48,0 КГц
Битовая глубина : 16 бит
Метод сжатия : С потерями
Размер потока : 230 Мбайт (15%)
Default : Да
Forced : Нет



Скачать Папа-призрак.Ghost.Dad.(Сидни.Пуатье).[1990.фэнтези.комедия.семейный.DVDRip-AVC].[MVO].torrent без регистрации
Золото ЗОЛОТАЯ РАЗДАЧА! СКАЧАННОЕ НЕ ЗАСЧИТЫВАЕТСЯ! Золото
Дата: Зарегистрирован   [ Тип: внутренний ] Как тут cкачать?
MAGNET ссылка
MAGNET ссылка


Скачать .torrent

15 KB

Статус: проверено DHT
Скачан: торрент - 104 раз, раздача полностью - 2 раз
Размер: 1,45 GB
Оценка:  - (Голосов: 0)
Поблагодарили: 1
Поделиться ссылкой на эту раздачу с друзьями:
В контактеFacebookОдноклассникиTwitterLivejournalМой МирLiveinternet
 

 
Показать сообщения:    


Вы не можете начинать темы
Вы не можете отвечать на сообщения
Вы не можете редактировать свои сообщения
Вы не можете удалять свои сообщения
Вы не можете голосовать в опросах
Вы не можете прикреплять файлы к сообщениям
Вы можете скачивать файлы