Loading...
Error

Скачать Папа-призрак / Ghost Dad (Сидни Пуатье) [1990, фэнтези, комедия, семейный, DVDRip] [MVO] торрент без регистрации

 
Статистика раздачи
Размер:  745 MB   |    Скачан:  111 раз
Сидов:  1  [  0 KB/s  ]  
 
Автор Сообщение

Marsianka

[] 

Страна: США
Производство: SAH Enterprises, Universal Pictures
Жанр: фэнтези, комедия, семейный
Год выпуска: 1990
Продолжительность: 01:26:42
Перевод: Профессиональный (многоголосый, закадровый)
Оригинальная аудиодорожка: нет
Cубтитры: нет

Режиссер: Сидни Пуатье / Sidney Poitier

В ролях: Билл Косби, Кимберли Расселл, Денис Николас, Йен Баннен, Кристин Эберсоул, Бэрри Корбин, Салим Грант, Брук Фонтейн, Дэкин Мэтьюз, Дана Эшбрук...
Описание: У вдовца Эллиота трое детей: Дэнни, Аманда и старшая дочь Дайен. Эллиот настоящий трудоголик, он работает с утра и до ночи, чтобы обеспечить семью, а воспитанием младших детей занимается Дайен. Каждый раз, когда дети просят отца сводить их в зоопарк или в кино, но отвечает: «Завтра», и каждый раз откладывает запланированный поход на неопределенный срок. Он всегда живет будущим, не думая о настоящем. Например, он очень надеется на четверг: в этот день должна состояться крупная сделка, которая, как он думает, изменит его жизнь к лучшему. Но человек предполагает, а бог располагает. Накануне долгожданного дня Эллиот берет такси. Водитель оказывается помешанным сатанистом и, разглядев в лице Эллиота черты то ли ангела, то ли дьявола, на бешенной скорости сбрасывает машину с моста. Эллиот не погибает, а впадает в состояние комы. Теперь у Эллиота нет спасительного «завтра», его душа располагает считанными часами для того, чтобы исправить ошибки, совершенные при жизни, закончить все финансовые дела и обеспечить материальное благосостояние своих детей. Итак, папочка привидение возвращается домой. Он может спокойно проходить сквозь предметы и остается невидимкой при дневном свете, увидеть его можно только в затемненной комнате. Не теряя ни минуты, Эллиот начинает приводить в порядок финансовые дела семьи, но вскоре он начинает понимать, что для детей важнее всего на свете его любовь и его присутствие рядом с ними

Исходник: DVD9
Тип релиза: DVDRip
Контейнер: AVI

Видео: 640x480 (4:3), 23.976 fps, XviD ~ 1115 kbps avg, 0.151 bit/pixel
Аудио: 48 kHz, MP3 2.0, 128 kbps

Раздача от:

Общее
Полное имя : Papa-prizrak.1990.DVDRip_[New-team]_by_AVP_Studio.avi
Формат : AVI
Формат/Информация : Audio Video Interleave
Размер файла : 745 Мбайт
Продолжительность : 1 ч. 23 м.
Общий поток : 1253 Кбит/сек
Программа кодирования : VirtualDubModRus 1.5.10.2 (build 2542/release)
Библиотека кодирования : VirtualDubMod build 2542/release

Видео
Идентификатор : 0
Формат : MPEG-4 Visual
Профиль формата : Advanced Simple@L5
Параметр BVOP формата : 1
Параметр QPel формата : Нет
Параметр GMC формата : Без точки перехода
Параметр матрицы формата : Выборочная
Идентификатор кодека : XVID
Идентификатор кодека/Подсказка : XviD
Продолжительность : 1 ч. 23 м.
Битрейт : 1115 Кбит/сек
Ширина : 640 пикселей
Высота : 480 пикселей
Соотношение сторон : 4:3
Частота кадров : 23,976 кадра/сек
Цветовое пространство : YUV
Субдискретизация насыщенности : 4:2:0
Битовая глубина : 8 бит
Тип развёртки : Прогрессивная
Метод сжатия : С потерями
Бит/(Пиксели*Кадры) : 0.151
Размер потока : 663 Мбайт (89%)
Библиотека кодирования : XviD 73

Аудио
Идентификатор : 1
Формат : MPEG Audio
Версия формата : Version 1
Профиль формата : Layer 3
Идентификатор кодека : 55
Идентификатор кодека/Подсказка : MP3
Продолжительность : 1 ч. 23 м.
Вид битрейта : Постоянный
Битрейт : 128 Кбит/сек
Каналы : 2 канала
Частота : 48,0 КГц
Метод сжатия : С потерями
Размер потока : 76,1 Мбайт (10%)
Выравнивание : Соединение по промежуткам
Продолжительность промежутка : 42 мс. (1,00 видеокадр)
Время предзагрузки промежутка : 504 мс.
Библиотека кодирования : LAME3.99r
Настройки программы : -m s -V 4 -q 2 -lowpass 17 -b 128



Скачать Папа-призрак.Ghost.Dad.(Сидни.Пуатье).[1990.фэнтези.комедия.семейный.DVDRip].[MVO].torrent без регистрации
Золото ЗОЛОТАЯ РАЗДАЧА! СКАЧАННОЕ НЕ ЗАСЧИТЫВАЕТСЯ! Золото
Дата: Зарегистрирован   [ Тип: внутренний ] Как тут cкачать?
MAGNET ссылка
MAGNET ссылка


Скачать .torrent

15 KB

Статус: проверено DHT
Скачан: торрент - 111 раз, раздача полностью - 12 раз
Размер: 745 MB
Оценка:  - (Голосов: 0)
Поблагодарили: 1
Поделиться ссылкой на эту раздачу с друзьями:
В контактеFacebookОдноклассникиTwitterLivejournalМой МирLiveinternet
 

 
Показать сообщения:    


Вы не можете начинать темы
Вы не можете отвечать на сообщения
Вы не можете редактировать свои сообщения
Вы не можете удалять свои сообщения
Вы не можете голосовать в опросах
Вы не можете прикреплять файлы к сообщениям
Вы можете скачивать файлы