Loading...
Error

Скачать Пляжные девочки / The Beach Girls (Бад Таунсенд) [1982, комедия, HDRip-AVC] [DVO] торрент без регистрации

 
Статистика раздачи
Размер:  1,09 GB   |    Скачан:  117 раз
Сидов:  1  [  0 KB/s  ]  
 
Автор Сообщение

Marsianka

[] 

Пляжные девочки / The Beach Girls (1982) HDRip-AVC

Информация о фильме
Название: Пляжные девочки
Оригинальное название: The Beach Girls
Год выхода: 1982
Жанр: комедия
Режиссер: Бад Таунсенд

В ролях: Дебра Бли, Вэл Кляйн, Жанна Томазина, Адам Рорк, Дэн Бэрроус, Херби Браха, Мэри Джо Кэтлетт, Ферн Фицджералд, Тесса Ричард...

О фильме: Три девушки отправляются на каникулах к морю. Случается так, что неподалёку, спасаясь от береговой охраны, местный контрабандист выбрасывает за борт солидный груз марихуаны. Огромные пакеты с травой прибивает к берегу, где их находят девушки и решают отпраздновать находку, закатив большую вечеринку.



Страна: США
Продолжительность: 01:31:24
Перевод: Профессиональный (двухголосый закадровый)

Файл
Кодек: x.264
Качество: HDRip-AVC
Видео: 928x528 (16:9), 23,976 fps, 1517 kbps, 0.129 bit/pixel
Звук: 48 kHz, AC3 Dolby Digital, 2 ch, ~192.00 kbps

&
Общее
Уникальный идентификатор : 170709630082266712854964009603127387433 (0x806D7A9510F623C2AB11E77B11112529)
Полное имя : D:The Beach Girls.1982.HDRip-AVC.mkv
Формат : Matroska
Версия формата : Version 4 / Version 2
Размер файла : 1,09 Гбайт
Продолжительность : 1 ч. 31 м.
Общий поток : 1711 Кбит/сек
Название фильма : Пляжные девочки / The Beach Girls (1982) HDRip-AVC rip by Rulya74
Дата кодирования : UTC 2014-04-17 14:50:40
Программа кодирования : mkvmerge v6.5.0 ('Isn't she lovely') built on Oct 20 2013 12:50:05
Библиотека кодирования : libebml v1.3.0 + libmatroska v1.4.1

Видео
Идентификатор : 1
Формат : AVC
Формат/Информация : Advanced Video Codec
Профиль формата : High@L4.1
Параметр CABAC формата : Да
Параметр ReFrames формата : 9 кадров
Идентификатор кодека : V_MPEG4/ISO/AVC
Продолжительность : 1 ч. 31 м.
Битрейт : 1517 Кбит/сек
Ширина : 928 пикселей
Высота : 528 пикселей
Соотношение сторон : 16:9
Режим частоты кадров : Постоянный
Частота кадров : 23,976 кадра/сек
Цветовое пространство : YUV
Субдискретизация насыщенности : 4:2:0
Битовая глубина : 8 бит
Тип развёртки : Прогрессивная
Бит/(Пиксели*Кадры) : 0.129
Размер потока : 971 Мбайт (87%)
Библиотека кодирования : x264 core 138 r2358 9e941d1
Настройки программы : cabac=1 / ref=9 / deblock=1:-1:-1 / analyse=0x3:0x113 / me=umh / subme=10 / psy=1 / psy_rd=1.06:0.10 / mixed_ref=1 / me_range=48 / chroma_me=1 / trellis=2 / 8x8dct=1 / cqm=0 / deadzone=21,11 / fast_pskip=0 / chroma_qp_offset=-3 / threads=4 / lookahead_threads=1 / sliced_threads=0 / nr=0 / decimate=1 / interlaced=0 / bluray_compat=0 / constrained_intra=0 / bframes=13 / b_pyramid=2 / b_adapt=2 / b_bias=0 / direct=1 / weightb=1 / open_gop=0 / weightp=2 / keyint=240 / keyint_min=23 / scenecut=40 / intra_refresh=0 / rc_lookahead=40 / rc=2pass / mbtree=1 / bitrate=1517 / ratetol=1.0 / qcomp=0.60 / qpmin=0 / qpmax=69 / qpstep=4 / cplxblur=20.0 / qblur=0.5 / vbv_maxrate=62500 / vbv_bufsize=78125 / nal_hrd=none / ip_ratio=1.40 / aq=1:1.00
Default : Да
Forced : Нет

Аудио
Идентификатор : 2
Формат : AC-3
Формат/Информация : Audio Coding 3
Расширение режима : CM (complete main)
Параметр Endianness формата : Big
Идентификатор кодека : A_AC3
Продолжительность : 1 ч. 31 м.
Вид битрейта : Постоянный
Битрейт : 192 Кбит/сек
Каналы : 2 канала
Расположение каналов : Front: L R
Частота : 48,0 КГц
Битовая глубина : 16 бит
Метод сжатия : С потерями
Размер потока : 126 Мбайт (11%)
Заголовок : Профессиональный (двухголосый закадровый)
Язык : Russian
Default : Да
Forced : Нет



Скачать Пляжные.девочки.The.Beach.Girls.(Бад.Таунсенд).[1982.комедия.HDRip-AVC].[DVO].torrent без регистрации
Золото ЗОЛОТАЯ РАЗДАЧА! СКАЧАННОЕ НЕ ЗАСЧИТЫВАЕТСЯ! Золото
Дата: Зарегистрирован   [ Тип: внутренний ] Как тут cкачать?
MAGNET ссылка
MAGNET ссылка


Скачать .torrent

11 KB

Статус: проверено DHT
Скачан: торрент - 117 раз, раздача полностью - 40 раз
Размер: 1,09 GB
Оценка:  - (Голосов: 0)
Поблагодарили: 1
Поделиться ссылкой на эту раздачу с друзьями:
В контактеFacebookОдноклассникиTwitterLivejournalМой МирLiveinternet
 

 
Показать сообщения:    


Вы не можете начинать темы
Вы не можете отвечать на сообщения
Вы не можете редактировать свои сообщения
Вы не можете удалять свои сообщения
Вы не можете голосовать в опросах
Вы не можете прикреплять файлы к сообщениям
Вы можете скачивать файлы