Loading...
Error

Скачать Фантомас / Fantomas (Андре Юнебель / Andre Hunebelle) [1964, Комедия, приключения, BDRip] [MVO] (Рен-ТВ) + [MVO] (НТВ) + [AVO] (Л. Володарский) + [MVO] (Региональное ТВ Аскот) + Original Fre торрент без регистрации

 
Статистика раздачи
Размер:  2,33 GB   |    Скачан:  104 раза

Полного источника не было: 23 минуты

 
Автор Сообщение

leon030982

[] 

Фантомас / Fantоmas


Год выпуска: 1964
Страна: Франция, Италия
Жанр: Комедия, приключения
Продолжительность: 01:44:15
Перевод: Профессиональный (многоголосый закадровый) Рен-ТВ
Перевод: Профессиональный (многоголосый закадровый) НТВ
Перевод: Авторский (одноголосый закадровый) Л. Володарский
Перевод: Профессиональный (многоголосый закадровый) Региональное ТВ Аскот
Cубтитры: нет
Оригинальная аудиодорожка: Французский

Режиссер: Андре Юнебель / Andre Hunebelle

В ролях: Жан Маре, Луи де Фюнес, Милен Демонжо, Жак Динам, Робер Дальбан, Мари-Элен Арно, Анн-Мари Пейссон, Кристиан Тома, Мишель Дюпле, Андре Таинси

Описание: Первый фильм трилогии о невероятных приключениях комиссара Жюва, преследующего неуловимого преступника Фантомаса. Париж потрясен сенсационными и дерзкими преступлениями, совершенными таинственным злодеем по имени Фантомас. На его поимку брошены все силы полиции, но Фантомас практически неуловим — он все время меняет облик, ловко ускользая из рук правосудия. Напасть на его след удается только комиссару Жюву с помощью Элен, подруги похищенного журналиста Фандора.

СЭМПЛ №1, СЭМПЛ №2

Качество видео: BDRip
Формат видео: AVI
Видео: 720x304 (2.37:1), 24.000 fps, XviD MPEG-4 ~2041 kbps
Аудио: 48 kHz, AC3 Dolby Digital, 2/0 (L,R) ch, ~192 kbps RUS Рен-ТВ
Аудио: 48 kHz, AC3 Dolby Digital, 2/0 (L,R) ch, ~192 kbps RUS НТВ
Аудио: 48 kHz, AC3 Dolby Digital, 2/0 (L,R) ch, ~384 kbps FR
Аудио: 48 kHz, AC3 Dolby Digital, 2/0 (L,R) ch, ~192 kbps RUS Л. Володарский (Отдельно)
Аудио: 48 kHz, AC3 Dolby Digital, 2/0 (L,R) ch, ~192 kbps RUS Региональное ТВ (Отдельно)

Цитата:

Рип найден в сети добавлены дорожки Рен-ТВ, НТВ, Л. Володарский спасибо team_6strun, Региональное ТВ спасибо Fikaloid
File: Фантомас (Fantоmas) [1964] (RU-RU-RU-RU-FR).avi
Filesize: 2100.29 Mb ( 2 202 316 800 bytes )
Play length: 01:44:15.921 (150142 frames)
Subtitles: Not Present
Video: 720x304 (2.37:1), 24.000 fps, XviD MPEG-4 ~2041 kbps avg, 0.39 bit/pixel
Audio #1: 48 kHz, AC3 Dolby Digital, 2/0 (L,R) ch, ~192 kbps
Audio #2: 48 kHz, AC3 Dolby Digital, 2/0 (L,R) ch, ~192 kbps
Audio #3: 48 kHz, AC3 Dolby Digital, 2/0 (L,R) ch, ~384 kbps
Общее
Полное имя : I:\Фантомас (Fantоmas) [1964] (RU-RU-RU-RU-FR)\Фантомас (Fantоmas) [1964] (RU-RU-RU-RU-FR) (Л. Володарский).ac3
Формат : AC-3
Формат/Информация : Audio Coding 3
Размер файла : 143 Мбайт
Продолжительность : 1 ч. 44 м.
Режим общего битрейта : Постоянный
Общий поток : 192 Кбит/сек
Аудио
Формат : AC-3
Формат/Информация : Audio Coding 3
Расширение режима : CM (complete main)
Параметр Endianness формата : Big
Продолжительность : 1 ч. 44 м.
Вид битрейта : Постоянный
Битрейт : 192 Кбит/сек
Каналы : 2 канала
Расположение каналов : Front: L R
Частота : 48,0 КГц
Битовая глубина : 16 бит
Метод сжатия : С потерями
Размер потока : 143 Мбайт (100%)
Общее
Полное имя : I:\Фантомас (Fantоmas) [1964] (RU-RU-RU-RU-FR)\Фантомас (Fantоmas) [1964] (RU-RU-RU-RU-FR) (Региональное ТВ 1994 Аскот).ac3
Формат : AC-3
Формат/Информация : Audio Coding 3
Размер файла : 143 Мбайт
Продолжительность : 1 ч. 44 м.
Режим общего битрейта : Постоянный
Общий поток : 192 Кбит/сек
Аудио
Формат : AC-3
Формат/Информация : Audio Coding 3
Расширение режима : CM (complete main)
Параметр Endianness формата : Big
Продолжительность : 1 ч. 44 м.
Вид битрейта : Постоянный
Битрейт : 192 Кбит/сек
Каналы : 2 канала
Расположение каналов : Front: L R
Частота : 48,0 КГц
Битовая глубина : 16 бит
Метод сжатия : С потерями
Размер потока : 143 Мбайт (100%)
Общее
Полное имя : I:\Фантомас (Fantоmas) [1964] (RU-RU-RU-RU-FR)\Фантомас (Fantоmas) [1964] (RU-RU-RU-RU-FR).avi
Формат : AVI
Формат/Информация : Audio Video Interleave
Профиль формата : OpenDML
Размер файла : 2,05 Гбайт
Продолжительность : 1 ч. 44 м.
Общий поток : 2816 Кбит/сек
Программа кодирования : VirtualDubMod 1.5.4.1 (build 2178/release)
Библиотека кодирования : VirtualDubMod build 2178/release
Видео
Идентификатор : 0
Формат : MPEG-4 Visual
Профиль формата : Advanced Simple@L5
Параметр BVOP формата : 1
Параметр QPel формата : Нет
Параметр GMC формата : Без точки перехода
Параметр матрицы формата : Default (H.263)
Режим смешивания : Сжатый битовый поток
Идентификатор кодека : XVID
Идентификатор кодека/Подсказка : XviD
Продолжительность : 1 ч. 44 м.
Битрейт : 2024 Кбит/сек
Ширина : 720 пикселей
Высота : 304 пикселя
Соотношение сторон : 2,35:1
Частота кадров : 24,000 кадра/сек
Цветовое пространство : YUV
Субдискретизация насыщенности : 4:2:0
Битовая глубина : 8 бит
Тип развёртки : Прогрессивная
Метод сжатия : С потерями
Бит/(Пиксели*Кадры) : 0.385
Размер потока : 1,47 Гбайт (72%)
Библиотека кодирования : XviD 1.2.1 (UTC 2008-12-04)
Аудио #1
Идентификатор : 1
Формат : AC-3
Формат/Информация : Audio Coding 3
Расширение режима : CM (complete main)
Параметр Endianness формата : Big
Идентификатор кодека : 2000
Продолжительность : 1 ч. 44 м.
Вид битрейта : Постоянный
Битрейт : 192 Кбит/сек
Каналы : 2 канала
Расположение каналов : Front: L R
Частота : 48,0 КГц
Битовая глубина : 16 бит
Метод сжатия : С потерями
Размер потока : 143 Мбайт (7%)
Выравнивание : Разделение по промежуткам
Продолжительность промежутка : 42 мс. (1,00 видеокадр)
Время предзагрузки промежутка : 500 мс.
Аудио #2
Идентификатор : 2
Формат : AC-3
Формат/Информация : Audio Coding 3
Расширение режима : CM (complete main)
Параметр Endianness формата : Big
Идентификатор кодека : 2000
Продолжительность : 1 ч. 44 м.
Вид битрейта : Постоянный
Битрейт : 192 Кбит/сек
Каналы : 2 канала
Расположение каналов : Front: L R
Частота : 48,0 КГц
Битовая глубина : 16 бит
Метод сжатия : С потерями
Размер потока : 143 Мбайт (7%)
Выравнивание : Разделение по промежуткам
Продолжительность промежутка : 42 мс. (1,00 видеокадр)
Время предзагрузки промежутка : 500 мс.
Аудио #3
Идентификатор : 3
Формат : AC-3
Формат/Информация : Audio Coding 3
Расширение режима : CM (complete main)
Параметр Endianness формата : Big
Идентификатор кодека : 2000
Продолжительность : 1 ч. 44 м.
Вид битрейта : Постоянный
Битрейт : 384 Кбит/сек
Каналы : 2 канала
Расположение каналов : Front: L R
Частота : 48,0 КГц
Битовая глубина : 16 бит
Метод сжатия : С потерями
Размер потока : 286 Мбайт (14%)
Выравнивание : Разделение по промежуткам
Продолжительность промежутка : 42 мс. (1,00 видеокадр)
Время предзагрузки промежутка : 500 мс.



Скачать Фантомас.Fantomas.(Андре.Юнебель.Andre.Hunebelle).[1964.Комедия.приключения.BDRip].[MVO].(Рен-ТВ).+.[MVO].(НТВ).+.[AVO].(Л.Володарский).+.[MVO].(Региональное.ТВ.Аскот).+.Original.Fre.torrent без регистрации
Золото ЗОЛОТАЯ РАЗДАЧА! СКАЧАННОЕ НЕ ЗАСЧИТЫВАЕТСЯ! Золото
Дата: Зарегистрирован   [ Тип: внутренний ] Как тут cкачать?
MAGNET ссылка
MAGNET ссылка


Скачать .torrent

12 KB

Статус: проверено DHT
Скачан: торрент - 104 раз, раздача полностью - 3 раз
Размер: 2,33 GB
Оценка:  - (Голосов: 0)
Поблагодарили: 1
Поделиться ссылкой на эту раздачу с друзьями:
В контактеFacebookОдноклассникиTwitterLivejournalМой МирLiveinternet
 

 
Показать сообщения:    


Вы не можете начинать темы
Вы не можете отвечать на сообщения
Вы не можете редактировать свои сообщения
Вы не можете удалять свои сообщения
Вы не можете голосовать в опросах
Вы не можете прикреплять файлы к сообщениям
Вы можете скачивать файлы