Loading...
Error

Скачать Остров / The Island (Майкл Ритчи / Michael Ritchie) [1980, боевик, приключения, BDRip] [MVO] (1-й канал) торрент без регистрации

 
Статистика раздачи
Размер:  1,45 GB   |    Скачан:  266 раз
Сидов:  1  [  0 KB/s  ]  
 
Автор Сообщение

leon030982

[] 

The Island

Остров


Год выпуска: 1980
Страна: США
Жанр: боевик, приключения
Продолжительность: 01:54:13
Перевод: Профессиональный (многоголосый, закадровый) -1-й канал

Режиссер: Майкл Ритчи / Michael Ritchie

В ролях: Майкл Кейн, Дэвид Уорнер, Анджела Панч МакГрегор, Фрэнк Миддлмасс, Дон Хендерсон, Дадли Саттон, Колин Джейвонс, Закс Мокаи, Бред О `Салливан, Джон О`Лири, Джеффри Франк

Описание: Репортер Блэйр Мэйнард упрашивает своего издателя отправить его в окрестности Флориды, где таинственным образом исчезают суда. Но кто бы мог подумать, что обычное журналистское расследование обернется самым сенсационным открытием века. Выясняется, что причиной страшных исчезновений яхт оказывается не пресловутый Бермудский Треугольник, а... настоящие пираты! Карибский бассейн всегда был знаменитой "пиратской вотчиной", но представить себе, что где-то на бескрайних просторах моря обитает община пиратов, понятия не имеющая, что на дворе двадцатое столетие, было просто невозможно! Но, к сожалению, это оказалось невероятной правдой. Лодка журналиста была взята "на абордаж", а ее пассажиры, Блэйр и его сын Джастин, стали добычей букканиров из семнадцатого века!


СЕМПЛ

Качество: BDRip (исх.The.Island.1980.BDRemux.1080p.HDTracker.mkv, спасибо ChuckNorriss)
Формат: AVI
Видео кодек: XviD
Аудио кодек: AC3
Видео: XviD, 720x304 (2.37:1), 23.976 fps, 1620 kbps avg, 0.31 bit/pixel
Аудио: AC3 Dolby Digital, 48 kHz, 192 kbps, 2/0 (L,R) ch

Рип:

Код:

Общее
Полное имя                               : F:\RT\Ostrov.1980.XviD.BDRip.MVO.avi
Формат                                   : AVI
Формат/Информация                        : Audio Video Interleave
Размер файла                             : 1,45 Гбайт
Продолжительность                        : 1 ч. 54 м.
Общий поток                              : 1822 Кбит/сек
Название фильма                          : Ostrov.1980.XviD.BDRip.MVO
Режиссёр                                 : Rip by Inch
Жанр                                     : Action/Adventure
Программа кодирования                    : VirtualDubMod 1.5.10.3 | www.virtualdub-fr.org || (build 2550/release)
Формат оригинала/Имя                     : The Island / Michael Ritchie/1980
Примечание                               : RusMVO [1-й канал]
Видео
Идентификатор                            : 0
Формат                                   : MPEG-4 Visual
Профиль формата                          : Advanced Simple@L5
Параметр BVOP формата                    : 2
Параметр QPel формата                    : Нет
Параметр GMC формата                     : Без точки перехода
Параметр матрицы формата                 : Выборочная
Идентификатор кодека                     : XVID
Идентификатор кодека/Подсказка           : XviD
Продолжительность                        : 1 ч. 54 м.
Битрейт                                  : 1621 Кбит/сек
Ширина                                   : 720 пикселей
Высота                                   : 304 пикселя
Соотношение сторон                       : 2,35:1
Частота кадров                           : 23,976 кадра/сек
Цветовое пространство                    : YUV
Субдискретизация насыщенности            : 4:2:0
Битовая глубина                          : 8 бит
Тип развёртки                            : Прогрессивная
Метод сжатия                             : С потерями
Бит/(Пиксели*Кадры)                      : 0.309
Размер потока                            : 1,29 Гбайт (89%)
Библиотека кодирования                   : XviD 73
Аудио
Идентификатор                            : 1
Формат                                   : AC-3
Формат/Информация                        : Audio Coding 3
Расширение режима                        : CM (complete main)
Параметр Endianness формата              : Big
Идентификатор кодека                     : 2000
Продолжительность                        : 1 ч. 54 м.
Вид битрейта                             : Постоянный
Битрейт                                  : 192 Кбит/сек
Каналы                                   : 2 канала
Расположение каналов                     : Front: L R
Частота                                  : 48,0 КГц
Битовая глубина                          : 16 бит
Метод сжатия                             : С потерями
Размер потока                            : 157 Мбайт (11%)
Выравнивание                             : Разделение по промежуткам
Продолжительность промежутка             : 42  мс. (1,00 видеокадр)
Время предзагрузки промежутка            : 500  мс.



Скачать Остров.The.Island.(Майкл.Ритчи.Michael.Ritchie).[1980.боевик.приключения.BDRip].[MVO].(1-й.канал).torrent без регистрации
Золото ЗОЛОТАЯ РАЗДАЧА! СКАЧАННОЕ НЕ ЗАСЧИТЫВАЕТСЯ! Золото
Дата: Зарегистрирован   [ Тип: внутренний ] Как тут cкачать?
MAGNET ссылка
MAGNET ссылка


Скачать .torrent

15 KB

Статус: проверено DHT
Скачан: торрент - 266 раз, раздача полностью - 13 раз
Размер: 1,45 GB
Оценка:  5 (Голосов: 1)
Поблагодарили: 1
Поделиться ссылкой на эту раздачу с друзьями:
В контактеFacebookОдноклассникиTwitterLivejournalМой МирLiveinternet
 

 
Показать сообщения:    


Вы не можете начинать темы
Вы не можете отвечать на сообщения
Вы не можете редактировать свои сообщения
Вы не можете удалять свои сообщения
Вы не можете голосовать в опросах
Вы не можете прикреплять файлы к сообщениям
Вы можете скачивать файлы