Loading...
Error

Скачать Обмани меня / Lie to me (Сезон 01-03, серии 01-48 из 48) (Кларк Джонсон, Роберт Швентке) [2009-2011, триллер, драма, криминал, детектив, WEB-DLRip] [DUB] (ТВ3) торрент без регистрации

 
Статистика раздачи
Размер:  18,84 GB   |    Скачан:  356 раз
Сидов:  1  [  0 KB/s  ]  
 
Автор Сообщение

leon030982

[] 

Обмани меня / Lie to me


Год выхода: 2009-2011
Выпущено: США
Жанр: триллер, драма, криминал, детектив
Продолжительность: 48 х ~ 00:45:00
Перевод: Профессиональный (Полное дублирование) - ТВ3

Режиссер: Кларк Джонсон, Роберт Швентке

В ролях: Тим Рот, Келли Уильямс, Брендан Хайнс, Моника Рэйманд


Доктор Лайтман считает, что все врут. И чтобы доказать это, ему достаточно всего лишь пару минут пообщаться с человеком. Любое движение, жест, любое неосторожное слово могут выдать в вас лжеца. Надо лишь уметь это увидеть. Среднестатистический человек врет три раза за десять минут разговора. Задача доктора Лайтмана и его коллег распознать эту ложь, и, используя свои таланты, они спасают от тюрьмы невиновных и сажают за решетку преступников. К Агентству Лайтмана обращаются за помощью федералы, правительство, Конгресс и даже премьер-министр Узбекистана. Но может ли человек быть счастлив, если видит, что все вокруг постоянно лгут?



Качество: WEB-DLRip
Формат: AVI
Видео кодек: XviD
Аудио кодек: MP3
Видео: 656x368 (1.78:1), 23.976 fps, XviD build 63 ~1080 kbps avg, 0.19 bit/pixel
Аудио №1: 48 kHz, MPEG Layer 3, 2 ch, ~128.00 kbps avg [DUB]
Аудио №2: 48 kHz, MPEG Layer 3, 2 ch, ~128.00 kbps avg [ENG]

Код:

General
Complete name                            : E:\Lie to me\Обмани меня (Сезон 1) ТВ3\Lie.To.Me.s01e01.avi
Format                                   : AVI
Format/Info                              : Audio Video Interleave
File size                                : 451 MiB
Duration                                 : 46mn 42s
Overall bit rate                         : 1 350 Kbps
Writing application                      : VirtualDubMod 1.5.10.3 | www.virtualdub-fr.org || (build 2550/release)
Writing library                          : VirtualDubMod build 2550/release

Video
ID                                       : 0
Format                                   : MPEG-4 Visual
Format profile                           : Advanced Simple@L5
Format settings, BVOP                    : 1
Format settings, QPel                    : No
Format settings, GMC                     : No warppoints
Format settings, Matrix                  : Default (MPEG)
Codec ID                                 : XVID
Codec ID/Hint                            : XviD
Duration                                 : 46mn 42s
Bit rate                                 : 1 080 Kbps
Width                                    : 656 pixels
Height                                   : 368 pixels
Display aspect ratio                     : 16:9
Frame rate                               : 23.976 fps
Color space                              : YUV
Chroma subsampling                       : 4:2:0
Bit depth                                : 8 bits
Scan type                                : Progressive
Compression mode                         : Lossy
Bits/(Pixel*Frame)                       : 0.187
Stream size                              : 361 MiB (80%)
Writing library                          : XviD 63

Audio #1
ID                                       : 1
Format                                   : MPEG Audio
Format version                           : Version 1
Format profile                           : Layer 3
Mode                                     : Joint stereo
Mode extension                           : MS Stereo
Codec ID                                 : 55
Codec ID/Hint                            : MP3
Duration                                 : 46mn 42s
Bit rate mode                            : Constant
Bit rate                                 : 128 Kbps
Channel(s)                               : 2 channels
Sampling rate                            : 48.0 KHz
Compression mode                         : Lossy
Stream size                              : 42.8 MiB (9%)
Alignment                                : Aligned on interleaves
Interleave, duration                     : 42 ms (1.00 video frame)
Interleave, preload duration             : 504 ms
Writing library                          : LAME3.98r
Encoding settings                        : -m j -V 4 -q 0 -lowpass 17 -b 128

Audio #2
ID                                       : 2
Format                                   : MPEG Audio
Format version                           : Version 1
Format profile                           : Layer 3
Mode                                     : Joint stereo
Mode extension                           : MS Stereo
Codec ID                                 : 55
Codec ID/Hint                            : MP3
Duration                                 : 46mn 42s
Bit rate mode                            : Constant
Bit rate                                 : 128 Kbps
Channel(s)                               : 2 channels
Sampling rate                            : 48.0 KHz
Compression mode                         : Lossy
Stream size                              : 42.8 MiB (9%)
Alignment                                : Aligned on interleaves
Interleave, duration                     : 42 ms (1.00 video frame)
Interleave, preload duration             : 504 ms
Writing library                          : LAME3.98r
Encoding settings                        : -m j -V 4 -q 0 -lowpass 17 -b 128



Скачать Обмани.меня.Lie.to.me.(Сезон.01-03.серии.01-48.из.48).(Кларк.Джонсон.Роберт.Швентке).[2009-2011.триллер.драма.криминал.детектив.WEB-DLRip].[DUB].(ТВ3).torrent без регистрации
Золото ЗОЛОТАЯ РАЗДАЧА! СКАЧАННОЕ НЕ ЗАСЧИТЫВАЕТСЯ! Золото
Дата: Зарегистрирован   [ Тип: внутренний ] Как тут cкачать?
MAGNET ссылка
MAGNET ссылка


Скачать .torrent

99 KB

Статус: проверено DHT
Скачан: торрент - 356 раз, раздача полностью - 44 раз
Размер: 18,84 GB
Оценка:  5 (Голосов: 3)
Поблагодарили: 9
Поделиться ссылкой на эту раздачу с друзьями:
В контактеFacebookОдноклассникиTwitterLivejournalМой МирLiveinternet
 

 
Показать сообщения:    


Вы не можете начинать темы
Вы не можете отвечать на сообщения
Вы не можете редактировать свои сообщения
Вы не можете удалять свои сообщения
Вы не можете голосовать в опросах
Вы не можете прикреплять файлы к сообщениям
Вы можете скачивать файлы