Loading...
Error

Скачать НИКО 2 / Смерти вопреки / Hard to Kill (Брюс Мэлмат) [1990, Боевик, BDRip-AVC] [AVO (Андрей Гаврилов)] торрент без регистрации

 
Статистика раздачи
Размер:  2,22 GB   |    Скачан:  153 раза
Сидов:  1  [  0 KB/s  ]  
 
Автор Сообщение

jon99

[] 


НИКО 2 / Смерти вопреки / Hard to Kill


Год выпуска: 1990
Выпущено: США
Жанр: Боевик
Продолжительность: 01:35:38
Перевод: Авторский (одноголосый) Андрей Гаврилов
Субтитры: русские / английские

Режиссер: Брюс Мэлмат

В ролях: Стивен Сигал, Келли ЛеБрок, Уильям Сэдлер, Фредерик Коффин, Бонни Барроуз, Эндрю Блок, Брэнском Ричмонд, Чарльз Босуэлл, Зэкари Розенкранц, Лу Битти мл.

Описание: Классический сюжет - убивают полицейского и всю его семью (Стивен Сигал) , но вскоре оказывается что он жив , после серьезных раней впадает в кому . Спустя 7 лет Джон До (так его зовут под ложным именем , ведь его пребывание в гиперсне было секретно для всех) просыпается чтобы отомстить убийцам !







Качество: BDRip-AVC
Формат: MKV
Видео кодек: H.264
Аудио кодек: AC3
Видео: 1024х576 (16:9), 23.976 кадр/сек, ~2.944 кбит/сек, 0.202 bit/pixel
Аудио: Rus; AC3; 48,0 КГц; 384 Кбит/сек; 6ch (Front: L, R) AVO

Цитата:

MediaInfo
Format : Matroska
File size : 2.12 GiB
Duration : 1h 35mn
Overall bit rate : 4 096 Kbps
Movie name : Hard to Kill
Encoded date : UTC 2012-08-07 13:42:29
Writing application : mkvmerge v4.6.0 ('Still Crazy After All These Years') сборка от Apr 1 2011 21:01:49
Writing library : libebml v1.2.0 + libmatroska v1.1.0
Video #1
ID : 1
Format : AVC
Format/Info : Advanced Video Codec
Format profile : High@L4.1
Format settings, CABAC : Yes
Format settings, ReFrames : 10 frames
Muxing mode : Container profile=Unknown@4.1
Codec ID : V_MPEG4/ISO/AVC
Duration : 1h 35mn
Bit rate : 2 863 Kbps
Nominal bit rate : 2 944 Kbps
Width : 1 024 pixels
Height : 576 pixels
Display aspect ratio : 16:9
Frame rate : 23.976 fps
Resolution : 8 bits
Colorimetry : 4:2:0
Scan type : Progressive
Bits/(Pixel*Frame) : 0.202
Stream size : 1.91 GiB (70%)
Title : Smerti vopreki / Hard to Kill
Writing library : x264 core 125 r2200 999b753
Encoding settings : cabac=1 / ref=10 / deblock=1:-3:-3 / analyse=0x3:0x133 / me=umh / subme=10 / psy=1 / psy_rd=1.00:0.10 / mixed_ref=1 / me_range=48 / chroma_me=1 / trellis=2 / 8x8dct=1 / cqm=0 / deadzone=21,11 / fast_pskip=0 / chroma_qp_offset=-3 / threads=6 / lookahead_threads=1 / sliced_threads=0 / nr=0 / decimate=1 / interlaced=0 / bluray_compat=0 / constrained_intra=0 / bframes=6 / b_pyramid=2 / b_adapt=2 / b_bias=0 / direct=3 / weightb=1 / open_gop=0 / weightp=2 / keyint=240 / keyint_min=22 / scenecut=40 / intra_refresh=0 / rc_lookahead=40 / rc=2pass / mbtree=1 / bitrate=2944 / ratetol=1.0 / qcomp=0.60 / qpmin=10 / qpmax=51 / qpstep=4 / cplxblur=20.0 / qblur=0.5 / ip_ratio=1.40 / aq=1:1.00

Audio #1
ID : 2
Format : AC-3
Format/Info : Audio Coding 3
Codec ID : A_AC3
Duration : 1h 35mn
Bit rate mode : Constant
Bit rate : 384 Kbps
Channel(s) : 6 channels
Channel positions : Front: L C R, Surround: L R, LFE
Sampling rate : 48.0 KHz
Stream size : 263 MiB (9%)
Title : AVO.Gavrilov
Text #1
ID : 3
Format : UTF-8
Codec ID : S_TEXT/UTF8
Codec ID/Info : UTF-8 Plain Text
Title : Russkie
Language : Russian
Text #2
ID : 4
Format : UTF-8
Codec ID : S_TEXT/UTF8
Codec ID/Info : UTF-8 Plain Text









Скачать НИКО.2.Смерти.вопреки.Hard.to.Kill.(Брюс.Мэлмат).[1990.Боевик.BDRip-AVC].[AVO.(Андрей.Гаврилов)].torrent без регистрации
Золото ЗОЛОТАЯ РАЗДАЧА! СКАЧАННОЕ НЕ ЗАСЧИТЫВАЕТСЯ! Золото
Дата: Зарегистрирован   [ Тип: внутренний ] Как тут cкачать?
MAGNET ссылка
MAGNET ссылка


Скачать .torrent

12 KB

Статус: проверено DHT
Скачан: торрент - 153 раз, раздача полностью - 0 раз
Размер: 2,22 GB
Оценка:  5 (Голосов: 4)
Поблагодарили: 3
Поделиться ссылкой на эту раздачу с друзьями:
В контактеFacebookОдноклассникиTwitterLivejournalМой МирLiveinternet
 

 
Показать сообщения:    


Вы не можете начинать темы
Вы не можете отвечать на сообщения
Вы не можете редактировать свои сообщения
Вы не можете удалять свои сообщения
Вы не можете голосовать в опросах
Вы не можете прикреплять файлы к сообщениям
Вы можете скачивать файлы