Loading...
Error

Скачать Обещать не значит жениться / He's Just Not That Into You (Кен Куопис) [2008, драма, мелодрама, комедия, BDRip-AVC] [Dub] торрент без регистрации

 
Статистика раздачи
Размер:  2,12 GB   |    Скачан:  122 раза
Сидов:  1  [  0 KB/s  ]  
 
Автор Сообщение

Marsianka

[] 

Обещать не значит жениться / He's Just Not That Into You (2008) BDRip-AVC | iPad | D


Название: Обещать не значит жениться
Оригинальное название: He's Just Not That Into You
Год выхода: 2008
Жанр: драма, мелодрама, комедия
Режиссер: Кен Куопис
В ролях: Бен Аффлек, Дженнифер Энистон, Дженнифер Коннелли, Брэдли Купер, Скарлетт Йоханссон, Джиннифер Гудвин, Джастин Лонг, Дрю Бэрримор, Кевин Коннолли, Крис Кристофферсон

О фильме:
Фильм, события которого разворачиваются в Балтиморе, повествует о непростых отношениях мужчины и женщины, которые не всегда верно истолковывают намерения друг друга. Привлекательный мужчина не спешит расстаться со своим статусом холостяка, чем вызывает бурную реакцию своей влюбленной подружки.



Страна: США, Германия, Нидерланды
Студия: New Line Cinema, Flower Films (II), Internationale Filmproduktion Blackswan

Продолжительность: 02:09:22
Перевод: Русский дублированный

Файл
Кодек: H.264
Качество: BDRip-AVC [576p]
Видео: 1024x426 (2.40:1) at 23.976 fps, AVC at 2080 kbps
1: АAС 2.0 132 kbps - Русский дублированный
2: АAС 2.0 132 kbps - Английский
Субтитры: Отсутствует

General
Complete name : C:CREATE264mod1outHes.Just.Not.That.Into.You.2008-576p.m4v
Format : MPEG-4
Codec ID : M4V
File size : 2.12 GiB
Duration : 2h 9mn
Overall bit rate mode : Variable
Overall bit rate : 2 352 Kbps
Movie name : Обещать - не значит жениться
Performer : Ken Kwapis
Genre : Comedy
ContentType : Short Film
Deion : Фильм, события которого разворачиваются в Балтиморе, повествует о непростых отношениях мужчины и женщины, которые не всегда верно истолковывают намерения друг друга. Привлекательный мужчина не спешит расстаться со своим статусом холостяка....
Recorded date : UTC 2009-06-02 07:00:00
Encoded date : UTC 2014-04-24 17:18:28
Tagged date : UTC 2014-04-24 17:50:08
Copyright : New Line Cinema, Flower Films (II), Internationale Filmproduktion Blackswan
Cover : Yes
Comment : «Позвони мне»
ContentRating : mpaa|PG-13|300|

Title/Sort : He's Just Not That Into You
LongDeion : Фильм, события которого разворачиваются в Балтиморе, повествует о непростых отношениях мужчины и женщины, которые не всегда верно истолковывают намерения друг друга. Привлекательный мужчина не спешит расстаться со своим статусом холостяка, чем вызывает бурную реакцию своей влюбленной подружки.
AppleStoreCatalogID : 305114504
Vendor : Apple:vendor_id:2008-392557

Video
ID : 1
Format : AVC
Format/Info : Advanced Video Codec
Format profile : High@L4.1
Format settings, CABAC : Yes
Format settings, ReFrames : 9 frames
Codec ID : avc1
Codec ID/Info : Advanced Video Coding
Duration : 2h 9mn
Bit rate : 2 074 Kbps
Maximum bit rate : 12.8 Mbps
Width : 1 024 pixels
Height : 426 pixels
Display aspect ratio : 2.40:1
Frame rate mode : Constant
Frame rate : 23.976 fps
Color space : YUV
Chroma subsampling : 4:2:0
Bit depth : 8 bits
Scan type : Progressive
Bits/(Pixel*Frame) : 0.198
Stream size : 1.87 GiB (88%)
Language : English
Encoded date : UTC 2014-04-24 17:18:28
Tagged date : UTC 2014-04-24 17:18:41
Matrix coefficients : BT.709

Audio #1
ID : 2
Format : AAC
Format/Info : Advanced Audio Codec
Format profile : LC
Codec ID : 40
Duration : 2h 9mn
Bit rate mode : Variable
Bit rate : 132 Kbps
Maximum bit rate : 173 Kbps
Channel(s) : 2 channels
Channel positions : Front: L R
Sampling rate : 48.0 KHz
Compression mode : Lossy
Stream size : 124 MiB (6%)
Title : Dub
Language : Russian
Encoded date : UTC 2014-04-24 17:11:34
Tagged date : UTC 2014-04-24 17:18:41

Audio #2
ID : 3
Format : AAC
Format/Info : Advanced Audio Codec
Format profile : LC
Codec ID : 40
Duration : 2h 9mn
Bit rate mode : Variable
Bit rate : 132 Kbps
Maximum bit rate : 173 Kbps
Channel(s) : 2 channels
Channel positions : Front: L R
Sampling rate : 48.0 KHz
Compression mode : Lossy
Stream size : 121 MiB (6%)
Title : Original
Language : English
Encoded date : UTC 2014-04-24 17:16:17
Tagged date : UTC 2014-04-24 17:18:41


Sort Name: He's Just Not That Into You
XID: Apple:vendor_id:2008-392557
Content ID: 305114504
Copyright: New Line Cinema, Flower Films (II), Internationale Filmproduktion Blackswan
ScreenWriters: Эбби Кон, Марк Силверштейн, Грег Берендт
Producers: Нэнси Джавонен, Дрю Бэрримор, Майкл Бегг
Director: Кен Куопис
Cast: Бен Аффлек, Дженнифер Энистон, Дженнифер Коннелли, Брэдли Купер, Скарлетт Йоханссон, Джиннифер Гудвин, Джастин Лонг, Дрю Бэрримор, Кевин Коннолли, Крис Кристофферсон // Jennifer Aniston (Beth), Jennifer Connelly (Janine), Drew Barrymore (Mary), Ginnifer Goodwin (Gigi), Ben Affleck (Neil), Kevin Connolly (Connor), Bradley Cooper (Ben), Scarlett Johansson (Anna Marks), Kris Kristofferson (Ken Murphy), Justin Long (Alex), Annie Ilonzeh (Hot Girl)
Rating: PG-13
Long Deion: Фильм, события которого разворачиваются в Балтиморе, повествует о непростых отношениях мужчины и женщины, которые не всегда верно истолковывают намерения друг друга. Привлекательный мужчина не спешит расстаться со своим статусом холостяка, чем вызывает бурную реакцию своей влюбленной подружки.
Deion: Фильм, события которого разворачиваются в Балтиморе, повествует о непростых отношениях мужчины и женщины, которые не всегда верно истолковывают намерения друг друга. Привлекательный мужчина не спешит расстаться со своим статусом холостяка....
Release Date: 2009-06-02T07:00:00Z
Genre: Comedy
Artist: Ken Kwapis
Name: Обещать - не значит жениться
Comments: «Позвони мне»

x264 [info]: frame I:1345 Avg QP:15.35 size: 68385
x264 [info]: frame P:39623 Avg QP:18.10 size: 23757
x264 [info]: frame B:145122 Avg QP:19.94 size: 6746
x264 [info]: consecutive B-frames: 1.8% 2.3% 6.0% 23.2% 19.6% 36.9% 2.6% 1.5% 0.4% 5.0% 0.2% 0.2% 0.2%
x264 [info]: mb I I16..4: 11.3% 56.9% 31.8%
x264 [info]: mb P I16..4: 0.4% 6.2% 1.9% P16..4: 30.3% 37.7% 15.3% 4.3% 0.7% skip: 3.1%
x264 [info]: mb B I16..4: 0.0% 0.5% 0.1% B16..8: 34.0% 19.9% 3.2% direct: 5.0% skip:37.4% L0:36.8% L1:43.5% BI:19.7%
x264 [info]: 8x8 transform intra:69.2% inter:40.1%
x264 [info]: coded y,uvDC,uvAC intra: 94.8% 82.1% 63.2% inter: 20.6% 12.7% 5.7%
x264 [info]: i16 v,h,dc,p: 12% 9% 15% 64%
x264 [info]: i8 v,h,dc,ddl,ddr,vr,hd,vl,hu: 15% 10% 6% 8% 11% 13% 11% 13% 12%
x264 [info]: i4 v,h,dc,ddl,ddr,vr,hd,vl,hu: 16% 10% 4% 8% 14% 14% 12% 11% 12%
x264 [info]: i8c dc,h,v,p: 32% 27% 23% 18%
x264 [info]: Weighted P-Frames: Y:1.2% UV:0.6%
x264 [info]: ref P L0: 59.7% 10.1% 13.2% 5.5% 3.8% 2.9% 2.3% 1.3% 1.2% 0.1% 0.0%
x264 [info]: ref B L0: 85.2% 6.8% 3.4% 1.6% 1.1% 0.9% 0.7% 0.3%
x264 [info]: ref B L1: 94.6% 5.4%
x264 [info]: kb/s:2074.11



Скачать Обещать.не.значит.жениться.He's.Just.Not.That.Into.You.(Кен.Куопис).[2008.драма.мелодрама.комедия.BDRip-AVC].[Dub].torrent без регистрации
Золото ЗОЛОТАЯ РАЗДАЧА! СКАЧАННОЕ НЕ ЗАСЧИТЫВАЕТСЯ! Золото
Дата: Зарегистрирован   [ Тип: внутренний ] Как тут cкачать?
MAGNET ссылка
MAGNET ссылка


Скачать .torrent

11 KB

Статус: проверено DHT
Скачан: торрент - 122 раз, раздача полностью - 19 раз
Размер: 2,12 GB
Оценка:  - (Голосов: 0)
Поблагодарили: 1
Поделиться ссылкой на эту раздачу с друзьями:
В контактеFacebookОдноклассникиTwitterLivejournalМой МирLiveinternet
 

 
Показать сообщения:    


Вы не можете начинать темы
Вы не можете отвечать на сообщения
Вы не можете редактировать свои сообщения
Вы не можете удалять свои сообщения
Вы не можете голосовать в опросах
Вы не можете прикреплять файлы к сообщениям
Вы можете скачивать файлы