Loading...
Error

Скачать Ракетчик / The Rocketeer (Джо Джонстон) [1991, фантастика, боевик, приключения, BDRip-AVC] [AVO ( Андрей Гаврилов)] торрент без регистрации

 
Статистика раздачи
Размер:  894 MB   |    Скачан:  152 раза
Сидов:  1  [  0 KB/s  ]  
 
Автор Сообщение

jon99

[] 




Год выпуска: 1991
Выпущено: США
Жанр: фантастика, боевик, приключения
Продолжительность: 01:48:31
Перевод: Авторский (одноголосый) Андрей Гаврилов
Субтитры: нет

Режиссер: Джо Джонстон

В ролях: Билл Кэмпбелл, Дженнифер Коннелли, Алан Аркин, Тимоти Далтон, Пол Сорвино, Терри О'Куинн, Эд Лотер, Джеймс Хэнди, Тайни Рон, Роберт Миранда

Описание: Америка тридцатых годов, золотое время! Гангстеры, нацистские шпионы и допотопные аэропланы, заполнившие небо. Молодой пилот Клифф Сэкорд находит сверхсекретное устройство — ракетный ранец, позволяющий подниматься в воздух. Вскоре в газетах появляются сообщения о таинственном человеке, парящем в небе словно ракета.

Журналисты дают ему громкое прозвище «Ракетчик». По его следу пускаются буквально все: репортеры, агенты ФБР и фашисты, больше других заинтересованные в совершенном оружии. В облаках снова мелькнула стремительная тень. Мертвая петля вокруг его шеи затягивается все туже.







Качество: BDRip-AVC
Формат: MKV
Видео кодек: H.264
Аудио кодек: AC3
Видео: 1280x544, / AVC High@L4.1 / 23.976 fps / bitrate ~950 Kbps / 2 pass encode
Аудио: Russian DD 2.0 48 kHz 192 kbps – закадровый (авторский одноголосый, Гаврилов)

Цитата:

General
Complete name : D:\HD&BluRae\Ракетчик The Rocketeer (1991) BDRip 720p\The Rocketeer 1991.BDRip-AVC.x264.mkv
Format : Matroska
File size : 894 MiB
Duration : 1h 48mn
Overall bit rate : 1 151 Kbps
Encoded date : UTC 2014-04-26 03:30:20
Writing application : mkvmerge v4.3.0 ('Escape from the Island') сборка от Sep 5 2010 10:30:51
Writing library : libebml v1.0.0 + libmatroska v1.0.0

Video
ID : 1
Format : AVC
Format/Info : Advanced Video Codec
Format profile : High@L4.1
Format settings, CABAC : Yes
Format settings, ReFrames : 5 frames
Muxing mode : Container profile=Unknown@4.1
Codec ID : V_MPEG4/ISO/AVC
Duration : 1h 48mn
Bit rate : 937 Kbps
Nominal bit rate : 959 Kbps
Width : 1 280 pixels
Height : 544 pixels
Display aspect ratio : 2.35:1
Frame rate : 23.976 fps
Resolution : 8 bits
Colorimetry : 4:2:0
Scan type : Progressive
Bits/(Pixel*Frame) : 0.056
Stream size : 726 MiB (81%)
Writing library : x264 core 138 r2358 9e941d1
Encoding settings : cabac=1 / ref=5 / deblock=1:-1:-1 / analyse=0x3:0x113 / me=umh / subme=9 / psy=1 / psy_rd=1.00:0.15 / mixed_ref=1 / me_range=24 / chroma_me=1 / trellis=2 / 8x8dct=1 / cqm=0 / deadzone=21,11 / fast_pskip=0 / chroma_qp_offset=-3 / threads=18 / lookahead_threads=1 / sliced_threads=0 / nr=0 / decimate=1 / interlaced=0 / bluray_compat=0 / constrained_intra=0 / bframes=3 / b_pyramid=2 / b_adapt=2 / b_bias=0 / direct=3 / weightb=0 / open_gop=0 / weightp=2 / keyint=240 / keyint_min=23 / scenecut=40 / intra_refresh=0 / rc_lookahead=60 / rc=2pass / mbtree=1 / bitrate=959 / ratetol=1.0 / qcomp=0.60 / qpmin=0 / qpmax=69 / qpstep=4 / cplxblur=20.0 / qblur=0.5 / vbv_maxrate=31250 / vbv_bufsize=31250 / nal_hrd=none / ip_ratio=1.40 / aq=1:1.00
Color primaries : BT.709-5, BT.1361, IEC 61966-2-4, SMPTE RP177
Matrix coefficients : BT.709-5, BT.1361, IEC 61966-2-4 709, SMPTE RP177

Audio
ID : 2
Format : AC-3
Format/Info : Audio Coding 3
Codec ID : A_AC3
Duration : 1h 48mn
Bit rate mode : Constant
Bit rate : 192 Kbps
Channel(s) : 2 channels
Channel positions : L R
Sampling rate : 48.0 KHz
Stream size : 149 MiB (17%)
Title : avo.Gavrilov
Language : Russian













Скачать Ракетчик.The.Rocketeer.(Джо.Джонстон).[1991.фантастика.боевик.приключения.BDRip-AVC].[AVO.(.Андрей.Гаврилов)].torrent без регистрации
Золото ЗОЛОТАЯ РАЗДАЧА! СКАЧАННОЕ НЕ ЗАСЧИТЫВАЕТСЯ! Золото
Дата: Зарегистрирован   [ Тип: внутренний ] Как тут cкачать?
MAGNET ссылка
MAGNET ссылка


Скачать .torrent

18 KB

Статус: проверено DHT
Скачан: торрент - 152 раз, раздача полностью - 0 раз
Размер: 894 MB
Оценка:  5 (Голосов: 3)
Поблагодарили: 3
Поделиться ссылкой на эту раздачу с друзьями:
В контактеFacebookОдноклассникиTwitterLivejournalМой МирLiveinternet
 

 

jon99

[] 

Если надо могу выложить 720p Рип со всеми дорожками - размером 4.34 Gb ay
 

sobmaster

[] 

По идее, этот релиз нужно было перенести в раздел "Фильмы до 2000 года в HD и DVD", но с таким битрейтом... пусть лучше здесь... ag
 

jon99

[] 

sobmaster
в том то и дело что разрешение тут только такое но битрейт слабоват - качал с забугра исходники 720p этот и 720p на 4,37Gb и посмотрел ! Этот только под AVC стандарт подпадает ab
 

jon99

[] 

Классный Фильм ! ay Он понравился мне даже больше чем новые всякие Человеки пауки ! ab В духе первых частей Индиана Джонс ! az
 
Показать сообщения:    


Вы не можете начинать темы
Вы не можете отвечать на сообщения
Вы не можете редактировать свои сообщения
Вы не можете удалять свои сообщения
Вы не можете голосовать в опросах
Вы не можете прикреплять файлы к сообщениям
Вы можете скачивать файлы