Loading...
Error

Скачать Месье Верду / Monsieur Verdoux (A Comedy of Murders, The Ladykiller) (Чарли Чаплин) [1947, драма, комедия, криминал, BDRip-AVC] [MVO]+[AVO(Ю. Толбин)]+[Sub]x2 торрент без регистрации

 
Статистика раздачи
Размер:  2,85 GB   |    Скачан:  126 раз
Сидов:  1  [  0 KB/s  ]  
 
Автор Сообщение

Marsianka

[] 

Информация о фильме
Название: Месье Верду
Оригинальное название: Monsieur Verdoux (A Comedy of Murders, The Ladykiller)
Год выхода: 1947
Жанр: драма, комедия, криминал
Режиссер: Чарли Чаплин
В ролях: Чарли Чаплин, Мэди Коррелл, Эллисон Роддан, Роберт Льюис, Одри Бетц, Марта Рэй, Ада Мэй, Изобел Элсом, Марджори Беннетт, Хэлена Хей, Маргарет Хоффман, Мэрлин Нэш, Ирвинг Бэйкон, Эдвин Миллс, Вирджиния Бриссак, Альмира Сешнс, Ойла Морган, Бернард Неделл, Чарльз Эванс, Уильям Фроули, Артур Хол, Барбара Слэйтер, Фриц Лейбер, Вера Марше, Джон Хэрмон, Кристин Элль, Луис Конклин

О фильме:
Действие происходит в Париже 1930-х годов. Анри Верду (Чаплин) - немолодой, но неотразимо обаятельный джентльмен. После тридцати лет добросовестной службы в банке он в одночасье потерял работу, когда наступила великая депрессия. Чтобы содержать прикованную к инвалидной коляске жену и школьника-сына, Верду стал проворачивать одну за другой брачные аферы. Он находил в разных частях Франции одиноких богатых дам, представлялся им холостяком, обольщал, женился и, завладев их соcтоянием, со временем избавлялся от «подруг жизни» при помощи яда. Та же судьба постигла и полицейского шпика, которому удалось выйти на след «синего бороды». После неудачной биржевой спекуляции, вызванной началом гражданской войны в Испании, Верду оказывается разорён. Его жена и сын умирают, а вместе с ними умирает и то, ради чего он жил. Он добровольно сдаётся полиции и перед смертной казнью декламирует известное изречение: «Убийство нескольких человек делает вас преступником, убийство миллионов - героем».



Страна: США
Студия: Charles Chaplin Productions
Продолжительность: 02:04:26
Перевод: Профессиональный многоголосый, авторский одноголосый (Ю. Толбин)

Файл
Кодек: MPEG-4 AVC
Качество: BDRip-AVC
Видео: 2700 Кбит/с, 768х576, 23.976 кадр/с
Сэмпл
Аудио #1: Русский (AC3, 2 ch, 192 Кбит/с) / Профессиональный многоголосый (ВГТРК)
Аудио #2: Русский (AC3, 2 ch, 192 Кбит/с) / Авторский одноголосый (Ю. Толбин)
Аудио #3: Английский (AC3, 1 ch, 192 Кбит/с)
Субтитры: Русские, английские (полные, SDH)
Общее
Уникальный идентификатор : 235005246682049923006147673163008807331 (0xB0CC5D3A11916E0CBE0FBA4E903791A3)
Полное имя : F:3Films FРелизыMese.Verdu.1947.x264.BDRip.AVC.MediaClub.mkv
Формат : Matroska
Версия формата : Version 4 / Version 2
Размер файла : 2,85 Гбайт
Продолжительность : 2 ч. 4 м.
Общий поток : 3279 Кбит/сек
Название фильма : -= MediaClub =- rip by Lefevr
Дата кодирования : UTC 2014-04-21 12:59:12
Программа кодирования : mkvmerge v6.6.0 ('The Edge Of The In Between') built on Dec 1 2013 17:55:00
Библиотека кодирования : libebml v1.3.0 + libmatroska v1.4.1

Видео
Идентификатор : 1
Формат : AVC
Формат/Информация : Advanced Video Codec
Профиль формата : High@L4.1
Параметр CABAC формата : Да
Параметр ReFrames формата : 9 кадров
Идентификатор кодека : V_MPEG4/ISO/AVC
Продолжительность : 2 ч. 4 м.
Битрейт : 2700 Кбит/сек
Ширина : 768 пикселей
Высота : 576 пикселей
Соотношение сторон : 4:3
Режим частоты кадров : Постоянный
Частота кадров : 23,976 кадра/сек
Цветовое пространство : YUV
Субдискретизация насыщенности : 4:2:0
Битовая глубина : 8 бит
Тип развёртки : Прогрессивная
Бит/(Пиксели*Кадры) : 0.255
Размер потока : 2,29 Гбайт (80%)
Заголовок : Mese.Verdu.1947.x264.BDRip.AVC.MediaClub
Библиотека кодирования : x264 core 130 r2273 b3065e6
Настройки программы : cabac=1 / ref=9 / deblock=1:-3:-3 / analyse=0x3:0x133 / me=umh / subme=11 / psy=1 / psy_rd=1.05:0.20 / mixed_ref=1 / me_range=32 / chroma_me=1 / trellis=2 / 8x8dct=1 / cqm=0 / deadzone=21,11 / fast_pskip=0 / chroma_qp_offset=-3 / threads=6 / lookahead_threads=1 / sliced_threads=0 / nr=0 / decimate=0 / interlaced=0 / bluray_compat=0 / constrained_intra=0 / bframes=8 / b_pyramid=2 / b_adapt=2 / b_bias=0 / direct=3 / weightb=1 / open_gop=0 / weightp=2 / keyint=240 / keyint_min=23 / scenecut=40 / intra_refresh=0 / rc=2pass / mbtree=0 / bitrate=2700 / ratetol=1.0 / qcomp=0.60 / qpmin=0 / qpmax=69 / qpstep=4 / cplxblur=20.0 / qblur=0.5 / ip_ratio=1.40 / pb_ratio=1.30 / aq=1:1.00
Язык : English
Default : Да
Forced : Нет

Аудио #1
Идентификатор : 2
Формат : AC-3
Формат/Информация : Audio Coding 3
Расширение режима : CM (complete main)
Параметр Endianness формата : Big
Идентификатор кодека : A_AC3
Продолжительность : 2 ч. 4 м.
Вид битрейта : Постоянный
Битрейт : 192 Кбит/сек
Каналы : 2 канала
Расположение каналов : Front: L R
Частота : 48,0 КГц
Битовая глубина : 16 бит
Метод сжатия : С потерями
Размер потока : 171 Мбайт (6%)
Заголовок : TRACK_01_MVO_RUS_ВГТРК
Язык : Russian
Default : Да
Forced : Да

Аудио #2
Идентификатор : 3
Формат : AC-3
Формат/Информация : Audio Coding 3
Расширение режима : CM (complete main)
Параметр Endianness формата : Big
Идентификатор кодека : A_AC3
Продолжительность : 2 ч. 4 м.
Вид битрейта : Постоянный
Битрейт : 192 Кбит/сек
Каналы : 2 канала
Расположение каналов : Front: L R
Частота : 48,0 КГц
Битовая глубина : 16 бит
Метод сжатия : С потерями
Размер потока : 171 Мбайт (6%)
Заголовок : TRACK_02_AVO_RUS_Tolbin
Язык : Russian
Default : Нет
Forced : Нет

Аудио #3
Идентификатор : 4
Формат : AC-3
Формат/Информация : Audio Coding 3
Расширение режима : CM (complete main)
Параметр Endianness формата : Big
Идентификатор кодека : A_AC3
Продолжительность : 2 ч. 4 м.
Вид битрейта : Постоянный
Битрейт : 192 Кбит/сек
Каналы : 1 канал
Расположение каналов : Front: C
Частота : 48,0 КГц
Битовая глубина : 16 бит
Метод сжатия : С потерями
Размер потока : 171 Мбайт (6%)
Заголовок : TRACK_03_ORIGINAL_ENG
Язык : English
Default : Нет
Forced : Нет

Текст #1
Идентификатор : 5
Формат : UTF-8
Идентификатор кодека : S_TEXT/UTF8
Идентификатор кодека/Информация : UTF-8 Plain Text
Заголовок : TEXT_01_SUB_RUS
Язык : Russian
Default : Нет
Forced : Нет

Текст #2
Идентификатор : 6
Формат : UTF-8
Идентификатор кодека : S_TEXT/UTF8
Идентификатор кодека/Информация : UTF-8 Plain Text
Заголовок : TEXT_02_SUB_ENG
Язык : English
Default : Нет
Forced : Нет

Текст #3
Идентификатор : 7
Формат : UTF-8
Идентификатор кодека : S_TEXT/UTF8
Идентификатор кодека/Информация : UTF-8 Plain Text
Заголовок : TEXT_03_SUB_ENG_SDH
Язык : English
Default : Нет
Forced : Нет

Меню
00:00:00.000 : en:01. "Good Evening"
00:02:43.663 : en:02. The Couvais Family
00:06:42.193 : en:03. Monsieur Varnay
00:13:03.366 : en:04. "He's A Bluebeard"
00:20:26.475 : en:05. A Visit To Paris
00:24:26.924 : en:06. Lydia
00:32:24.192 : en:07. "Daddy!"
00:38:43.071 : en:08. The Bonheurs
00:47:01.944 : en:09. Annabella And Chloroform
00:51:08.107 : en:10. Wooing Madame Grosnay
00:54:09.746 : en:11. "CbHC"
00:56:58.915 : en:12. The Experiment
01:01:42.407 : en:13. "I Would Have Killed For Him"
01:08:47.290 : en:14. "The Game's Up"
01:15:16.971 : en:15. A Bit Of Business
01:17:48.539 : en:16. Annabella And Poison
01:25:42.971 : en:17. Annabella And The Lake
01:31:21.768 : en:18. "I Have No More Resistance"
01:36:13.017 : en:19. A Quiet Wedding
01:44:07.491 : en:20. World In Crisis
01:46:15.202 : en:21. "Hello, Mr. Philanthropist"
01:48:26.417 : en:22. Destiny
01:56:48.501 : en:23. "Numbers Sanctify"
Сохранены и подписаны оригинальные чаптеры как на Blu-ray.
x264 log
x264 [info]: frame I:1060PPAvg QP:17.12PPsize: 68137
x264 [info]: frame P:40867 Avg QP:19.87PPsize: 26606
x264 [info]: frame B:137066 Avg QP:21.42PPsize:PP9923
За помощь в подготовке релиза спасибо Константину - Painter и Виталию - neni
За постер спасибо Инне - cookies от Media-Art-Club
Релиз от: | Автор рипа:



Скачать Месье.Верду.Monsieur.Verdoux.(A.Comedy.of.Murders.The.Ladykiller).(Чарли.Чаплин).[1947.драма.комедия.криминал.BDRip-AVC].[MVO]+[AVO(Ю.Толбин)]+[Sub]x2.torrent без регистрации
Золото ЗОЛОТАЯ РАЗДАЧА! СКАЧАННОЕ НЕ ЗАСЧИТЫВАЕТСЯ! Золото
Дата: Зарегистрирован   [ Тип: внутренний ] Как тут cкачать?
MAGNET ссылка
MAGNET ссылка


Скачать .torrent

15 KB

Статус: проверено DHT
Скачан: торрент - 126 раз, раздача полностью - 0 раз
Размер: 2,85 GB
Оценка:  - (Голосов: 0)
Поблагодарили: 0
Поделиться ссылкой на эту раздачу с друзьями:
В контактеFacebookОдноклассникиTwitterLivejournalМой МирLiveinternet
 

 
Показать сообщения:    


Вы не можете начинать темы
Вы не можете отвечать на сообщения
Вы не можете редактировать свои сообщения
Вы не можете удалять свои сообщения
Вы не можете голосовать в опросах
Вы не можете прикреплять файлы к сообщениям
Вы можете скачивать файлы