Loading...
Error

Скачать Хранилище 13 / Warehouse 13 (05х01-05 из 06) (Крис Фишер, Константин Макрис, Тауния Маккирнан) [2014, фантастика, триллер, драма, WEB-DL] [1080p] [MVO (LostFilm)] торрент без регистрации

 
Статистика раздачи
Размер:  8,78 GB   |    Скачан:  126 раз
Сидов:  1  [  0 KB/s  ]  
 
Автор Сообщение

МихаНЕзатор

[] 

Информация о фильме
Название: Хранилище 13
Оригинальное название: Warehouse 13
Год выхода: 2014
Жанр: фантастика, триллер, драма
Режиссер: Крис Фишер, Константин Макрис, Тауния Маккирнан

В ролях: Эдди МакКлинток, Джоэнн Келли, Сол Рубинек, Эллисон Скальотти, Аарон Эшмор, Си Си Эйч Паундер, Линдсей Вагнер, Келли Ху, Рене Обержонуа, Марк Шеппард, Полли Уолкер и др.

О фильме: «Хранилище 13» (Warehouse 13) - научно-фантастический сериал, рассказывающий об агентах Секретной службы Соединенных Штатов, занимающихся расследованием историй содержащихся на секретном складе таинственных вещей, обладающих сверхъестественными силами.
На протяжении столетий правительство США собирало в секретном «Хранилище 13» различные странные вещи, тем или иным образом попавшие в руки правительственных агентов. Реликвии и артефакты, сверхъестественное и инопланетное - у каждой из вещей своя загадка, своя тайна...

Релиз от:

by Nez

Страна: США
Продолжительность: ~ 00:43:00
Перевод: Профессиональный (многоголосый закадровый) LostFilm

Файл
Кодек: x264
Качество: WEB-DL 1080p
Видео: 1920x1080 at 23.976 fps, MPEG-4 AVC, ~5000 kbps avg
Звук:
Аудио 1: Russian: 48 kHz, AC3, 3/2 (L,C,R,l,r) + LFE ch, ~384.00 kbps avg |Многоголосый закадровый, LostFilm|
Аудио 2: English: 48 kHz, AC3, 3/2 (L,C,R,l,r) + LFE ch, ~384.00 kbps avg
Субтитры: английские

АНОНСЫ ПОПУЛЯРНЫХ РАЗДАЧ


23.05.2014 г. торент обновлён, добавлена 2-5 серия!

01. Бесконечный ужас / Endless Terror
02. Секретные службы / Secret Services
03. A Faire to Remember
04. Savage Seduction
05. Цангху шисы/Китайское хранилище 14 / Cangku Shisi

06. Бесконечные чудеса / Endless

Общее
Уникальный идентификатор : 221909447194250059436738738839125726049 (0xA6F234764083833DAB6C0B31970F9361)
Полное имя : Warehouse.13.S05.1080p.WEB-DL.Rus.Eng.HDCLUBWarehouse.13.S05E01.1080p.WEB-DL.Rus.Eng.HDCLUB.mkv
Формат : Matroska
Версия формата : Version 4 / Version 2
Размер файла : 1,72 Гбайт
Продолжительность : 43 м.
Общий поток : 5732 Кбит/сек
Название фильма : Warehouse 13 5x01 (2014) - Release for HDCLUB
Дата кодирования : UTC 2014-04-18 03:58:12
Программа кодирования : mkvmerge v6.7.0 ('Back to the Ground') 64bit built on Jan 8 2014 15:10:52
Библиотека кодирования : libebml v1.3.0 + libmatroska v1.4.1

Видео
Идентификатор : 1
Формат : AVC
Формат/Информация : Advanced Video Codec
Профиль формата : High@L4.0
Параметр CABAC формата : Да
Параметр ReFrames формата : 4 кадра
Идентификатор кодека : V_MPEG4/ISO/AVC
Продолжительность : 43 м.
Битрейт : 4850 Кбит/сек
Ширина : 1920 пикселей
Высота : 1080 пикселей
Соотношение сторон : 16:9
Режим частоты кадров : Постоянный
Частота кадров : 23,976 кадра/сек
Цветовое пространство : YUV
Субдискретизация насыщенности : 4:2:0
Битовая глубина : 8 бит
Тип развёртки : Прогрессивная
Бит/(Пиксели*Кадры) : 0.098
Размер потока : 1,46 Гбайт (85%)
Заголовок : Warehouse 13 5x01: Endless Terror / Бесконечный ужас - Release for HDCLUB
Язык : English
Default : Да
Forced : Нет
Основные цвета : BT.709
Характеристики трансфера : BT.709
Коэффициенты матрицы : BT.709

Аудио #1
Идентификатор : 2
Формат : AC-3
Формат/Информация : Audio Coding 3
Расширение режима : CM (complete main)
Параметр Endianness формата : Big
Идентификатор кодека : A_AC3
Продолжительность : 43 м.
Вид битрейта : Постоянный
Битрейт : 384 Кбит/сек
Каналы : 6 каналов
Расположение каналов : Front: L C R, Side: L R, LFE
Частота : 48,0 КГц
Битовая глубина : 16 бит
Метод сжатия : С потерями
Размер потока : 118 Мбайт (7%)
Заголовок : LostFilm
Язык : Russian
Default : Да
Forced : Нет

Аудио #2
Идентификатор : 3
Формат : AC-3
Формат/Информация : Audio Coding 3
Расширение режима : CM (complete main)
Параметр Endianness формата : Big
Идентификатор кодека : A_AC3
Продолжительность : 43 м.
Вид битрейта : Постоянный
Битрейт : 384 Кбит/сек
Каналы : 6 каналов
Расположение каналов : Front: L C R, Side: L R, LFE
Частота : 48,0 КГц
Битовая глубина : 16 бит
Метод сжатия : С потерями
Размер потока : 118 Мбайт (7%)
Язык : English
Default : Нет
Forced : Нет

Текст
Идентификатор : 4
Формат : UTF-8
Идентификатор кодека : S_TEXT/UTF8
Идентификатор кодека/Информация : UTF-8 Plain Text
Язык : English
Default : Нет
Forced : Нет



Скачать Хранилище.13.Warehouse.13.(05х01-05.из.06).(Крис.Фишер.Константин.Макрис.Тауния.Маккирнан).[2014.фантастика.триллер.драма.WEB-DL].[1080p].[MVO.(LostFilm)].torrent без регистрации
Золото ЗОЛОТАЯ РАЗДАЧА! СКАЧАННОЕ НЕ ЗАСЧИТЫВАЕТСЯ! Золото
Дата: Зарегистрирован   [ Тип: внутренний ] Как тут cкачать?
MAGNET ссылка
MAGNET ссылка


Скачать .torrent

23 KB

Статус: проверено DHT
Скачан: торрент - 126 раз, раздача полностью - 0 раз
Размер: 8,78 GB
Оценка:  - (Голосов: 0)
Поблагодарили: 0
Поделиться ссылкой на эту раздачу с друзьями:
В контактеFacebookОдноклассникиTwitterLivejournalМой МирLiveinternet
 

 

МихаНЕзатор

[] 

Раздача обновлена
 
Показать сообщения:    


Вы не можете начинать темы
Вы не можете отвечать на сообщения
Вы не можете редактировать свои сообщения
Вы не можете удалять свои сообщения
Вы не можете голосовать в опросах
Вы не можете прикреплять файлы к сообщениям
Вы можете скачивать файлы