Loading...
Error

Скачать Генеалогия преступления / Genealogies d'un crime (Рауль Руис) [1997, драма, DVDRip-AVC] [MVO]+[Sub] торрент без регистрации

 
Статистика раздачи
Размер:  1,54 GB   |    Скачан:  109 раз
Сидов:  1  [  0 KB/s  ]  
 
Автор Сообщение

Marsianka

[] 

Информация о фильме
Название: Генеалогия преступления
Оригинальное название: Genealogies d'un crime
Год выхода: 1997
Жанр: драма
Режиссер: Рауль Руис / Raoul Ruiz
В ролях: Катрин Денев, Мишель Пикколи, Мельвиль Пупо, Анджей Северин, Бернадетт Лафон, Моник Мелинан, Юбер Сен-Макари, Жан-Ив Готье, Матье Амальрик

О фильме:
Соланж известный адвокат. Она прославилась тем, что всегда бралась за самые безнадежные дела и всегда проигрывала процессы. Она соглашается защищать молодого человека Рене, убившего свою тетю. Он себя преступником не считает, а в смерти родственницы винит некое психоаналитическое общество, в котором та состояла...
Премия за вклад в киноискусство на МКФ в Западном Берлине


Страна: Франция, Португалия
Студия: Madragoa Filmes, Gemini Films, Canal+
Продолжительность: 01:48:37.200
Перевод: Профессиональный (многоголосый, закадровый) R5
Общее
Уникальный идентификатор : 218777478529336840624314803086172648884 (0xA497027C12EFB54292BAE503E64475B4)
Полное имя : D:FilmsGenealogia_prestupleniya.1997.DVDRip-AVC.mkv
Формат : Matroska
Версия формата : Version 4 / Version 2
Размер файла : 1,54 Гбайт
Продолжительность : 1 ч. 48 м.
Общий поток : 2028 Кбит/сек
Дата кодирования : UTC 2014-04-26 18:47:04
Программа кодирования : mkvmerge v6.9.1 ('Blue Panther') 64bit built on Apr 18 2014 18:23:38
Библиотека кодирования : libebml v1.3.0 + libmatroska v1.4.1

Видео
Идентификатор : 1
Формат : AVC
Формат/Информация : Advanced Video Codec
Профиль формата : High@L4.1
Параметр CABAC формата : Да
Параметр ReFrames формата : 16 кадров
Идентификатор кодека : V_MPEG4/ISO/AVC
Продолжительность : 1 ч. 48 м.
Битрейт : 1639 Кбит/сек
Ширина : 640 пикселей
Высота : 560 пикселей
Соотношение сторон : 16:10
Соотношение сторон в оригинале : 16:10
Режим частоты кадров : Постоянный
Частота кадров : 25,000 кадров/сек
Цветовое пространство : YUV
Субдискретизация насыщенности : 4:2:0
Битовая глубина : 8 бит
Тип развёртки : Прогрессивная
Бит/(Пиксели*Кадры) : 0.183
Размер потока : 1,22 Гбайт (79%)
Библиотека кодирования : x264 core 138 r2358 9e941d1
Настройки программы : cabac=1 / ref=16 / deblock=1:0:0 / analyse=0x3:0x133 / me=umh / subme=10 / psy=1 / psy_rd=1.10:0.10 / mixed_ref=1 / me_range=32 / chroma_me=1 / trellis=2 / 8x8dct=1 / cqm=0 / deadzone=21,11 / fast_pskip=0 / chroma_qp_offset=-3 / threads=8 / lookahead_threads=1 / sliced_threads=0 / nr=0 / decimate=0 / interlaced=0 / bluray_compat=0 / constrained_intra=0 / bframes=9 / b_pyramid=2 / b_adapt=2 / b_bias=0 / direct=3 / weightb=1 / open_gop=0 / weightp=2 / keyint=250 / keyint_min=25 / scenecut=60 / intra_refresh=0 / rc_lookahead=60 / rc=2pass / mbtree=0 / bitrate=1639 / ratetol=1.0 / qcomp=0.60 / qpmin=0 / qpmax=69 / qpstep=4 / cplxblur=20.0 / qblur=0.5 / vbv_maxrate=50000 / vbv_bufsize=62500 / nal_hrd=none / ip_ratio=1.40 / pb_ratio=1.30 / aq=2:1.00
Default : Нет
Forced : Нет
Коэффициенты матрицы : BT.601

Аудио #1
Идентификатор : 2
Формат : AC-3
Формат/Информация : Audio Coding 3
Расширение режима : CM (complete main)
Параметр Endianness формата : Big
Идентификатор кодека : A_AC3
Продолжительность : 1 ч. 48 м.
Вид битрейта : Постоянный
Битрейт : 192 Кбит/сек
Каналы : 2 канала
Расположение каналов : Front: L R
Частота : 48,0 КГц
Битовая глубина : 16 бит
Метод сжатия : С потерями
Размер потока : 149 Мбайт (9%)
Язык : Russian
Default : Да
Forced : Нет

Аудио #2
Идентификатор : 3
Формат : AC-3
Формат/Информация : Audio Coding 3
Расширение режима : CM (complete main)
Параметр Endianness формата : Big
Идентификатор кодека : A_AC3
Продолжительность : 1 ч. 48 м.
Вид битрейта : Постоянный
Битрейт : 192 Кбит/сек
Каналы : 2 канала
Расположение каналов : Front: L R
Частота : 48,0 КГц
Битовая глубина : 16 бит
Метод сжатия : С потерями
Размер потока : 149 Мбайт (9%)
Язык : French
Default : Нет
Forced : Нет

Текст
Идентификатор : 4
Формат : VobSub
Режим смешивания : zlib
Идентификатор кодека : S_VOBSUB
Идентификатор кодека/Информация : The same subtitle format used on DVDs
Язык : Russian
Default : Нет
Forced : Нет

Меню
00:00:00.000 : en:Chapter 01
00:08:43.200 : en:Chapter 02
00:18:13.080 : en:Chapter 03
00:25:25.160 : en:Chapter 04
00:37:10.360 : en:Chapter 05
00:44:59.520 : en:Chapter 06
00:55:05.520 : en:Chapter 07
01:05:16.760 : en:Chapter 08
01:12:15.800 : en:Chapter 09
01:20:35.120 : en:Chapter 10
01:31:14.000 : en:Chapter 11
01:39:34.040 : en:Chapter 12
frame I:878 Avg QP:16.14 size: 55929
frame P:30005 Avg QP:18.84 size: 21875
frame B:132047 Avg QP:21.05 size: 4769
Исходник R5

Файл
Кодек: h.264
Качество: DVDRip-AVC
Видео: 640x560 (1.630) @ 914x560 (анаморф), 25.000 fps, AVC, ~1639 Kbps, 0.183 bits/pixel
Звук:
Русский, 48.0 KHz, AC3, 2 ch, 192 Kbps
Французский, 48.0 KHz, AC3, 2 ch, 192 Kbps
Субтитры: Русские, VobSub Релиз от: Temperest



Скачать Генеалогия.преступления.Genealogies.d'un.crime.(Рауль.Руис).[1997.драма.DVDRip-AVC].[MVO]+[Sub].torrent без регистрации
Золото ЗОЛОТАЯ РАЗДАЧА! СКАЧАННОЕ НЕ ЗАСЧИТЫВАЕТСЯ! Золото
Дата: Зарегистрирован   [ Тип: внутренний ] Как тут cкачать?
MAGNET ссылка
MAGNET ссылка


Скачать .torrent

16 KB

Статус: проверено DHT
Скачан: торрент - 109 раз, раздача полностью - 0 раз
Размер: 1,54 GB
Оценка:  - (Голосов: 0)
Поблагодарили: 1
Поделиться ссылкой на эту раздачу с друзьями:
В контактеFacebookОдноклассникиTwitterLivejournalМой МирLiveinternet
 

 
Показать сообщения:    


Вы не можете начинать темы
Вы не можете отвечать на сообщения
Вы не можете редактировать свои сообщения
Вы не можете удалять свои сообщения
Вы не можете голосовать в опросах
Вы не можете прикреплять файлы к сообщениям
Вы можете скачивать файлы