Loading...
Error

Скачать Муха 2 / The Fly 2 (Крис Уолас) [1989, Ужасы, фантастика, VHSRip ] [FULLSCREEN VERSION] [AVO (Горчаков - ранний перевод)] торрент без регистрации

 
Статистика раздачи
Размер:  1,16 GB   |    Скачан:  172 раза

Полного источника не было: 26 минут

Личеров:  2  [  0 KB/s  ]  
 
Автор Сообщение

jon99

[] 


Муха 2 / The Fly 2


Год выпуска: 1989
Выпущено: США, 20th Century Fox Film Corporation, Brooksfilms
Жанр: Ужасы, фантастика
Продолжительность: 01:40:00
Перевод: Авторский (одноголосый) Горчаков - ранний перевод
Субтитры: нет
Режиссер: Крис Уолас
В ролях: Эрик Штолц, Дэфни Зунига, Ли Ричардсон, Джон Гец, Фрэнк Тернер, Энн Мари Ли
Описание: Под внешним, совершенно нормальным обликом молодого Мартина Брандла, сына, гениального ученого-биолога Сэта Брандла, скрывается самый необыкновенный человек из когда-либо живших на земле. Его генетический код был изменен в ходе неудавшегося научного эксперимента. Группа ученых содержит мутанта в научно-исследовательском центре и растит в строжайшем секрете, скрывая от него тайну его рождения и терпеливо ожидая начала превращения...
Данного релиза нет в сети на трекерах именно с таким переводом (ранний Горчаков) !!!
Раздачу можно считать уникальной !


Качество: Rip
Формат: MKV
Видео кодек: DivX
Аудио кодек: AC3
Видео: Size 640 x 480 / 25.000 Кадр/с / bitrate ~1 333 Kbps
Аудио: AC3, 2 ch.stereo, 320 Кбит/с - AVO . Горчаков - ранний перевод

Цитата:

General
Complete name : D:\Video\VHSRip\The_Fly_2_VHSRip_(1989).mkv
Format : Matroska
File size : 1.16 GiB
Duration : 1h 40mn
Overall bit rate : 1 654 Kbps
Encoded date : UTC 2014-04-28 09:23:28
Writing application : mkvmerge v4.3.0 ('Escape from the Island') сборка от Sep 5 2010 10:30:51
Writing library : libebml v1.0.0 + libmatroska v1.0.0

Video
ID : 1
Format : MPEG-4 Visual
Format profile : Advanced Simple@L5
Format settings, BVOP : Yes
Format settings, QPel : No
Format settings, GMC : No warppoints
Format settings, Matrix : Default (H.263)
Codec ID : DIVX
Codec ID/Info : Project Mayo
Codec ID/Hint : DivX 4
Duration : 1h 40mn
Bit rate : 1 301 Kbps
Width : 640 pixels
Height : 480 pixels
Display aspect ratio : 4:3
Frame rate : 25.000 fps
Resolution : 8 bits
Colorimetry : 4:2:0
Scan type : Progressive
Bits/(Pixel*Frame) : 0.169
Stream size : 930 MiB (79%)

Audio
ID : 2
Format : AC-3
Format/Info : Audio Coding 3
Codec ID : A_AC3
Duration : 1h 40mn
Bit rate mode : Constant
Bit rate : 320 Kbps
Channel(s) : 2 channels
Channel positions : L R
Sampling rate : 48.0 KHz
Stream size : 229 MiB (19%)
Title : AVO.Горчаков ранний (VHS)
Language : Russian


БОЛЬШАЯ ПРОСЬБА ПРИ ПЕРЕЗАЛИВЕ НА ДРУГИЕ ТРЕКЕРЫ УКАЗЫВАТЬ АВТОРА РАЗДАЧИ ИСХОДНИКА (РИПЕРА) !!!




Скачать Муха.2.The.Fly.2.(Крис.Уолас).[1989.Ужасы.фантастика.VHSRip.].[FULLSCREEN.VERSION].[AVO.(Горчаков.-.ранний.перевод)].torrent без регистрации
Золото ЗОЛОТАЯ РАЗДАЧА! СКАЧАННОЕ НЕ ЗАСЧИТЫВАЕТСЯ! Золото
Дата: Зарегистрирован   [ Тип: внутренний ] Как тут cкачать?
MAGNET ссылка
MAGNET ссылка


Скачать .torrent

12 KB

Статус: проверено DHT
Скачан: торрент - 172 раз, раздача полностью - 0 раз
Размер: 1,16 GB
Оценка:  5 (Голосов: 2)
Поблагодарили: 1
Поделиться ссылкой на эту раздачу с друзьями:
В контактеFacebookОдноклассникиTwitterLivejournalМой МирLiveinternet
 

 

deadmauVlad

[] 

jon99
рип вроде норм кроме того что вы забыли сделать кроп (обрезать по бокам примерно -15 -15)
 

jon99

[] 

deadmauVlad
да лень заморачиваться , итак пол дня убил на запись / конвертацию (в других программах захвата идет рассинхронизация звука а в этой не предусмотрен крап) ,
перевод дорожки в dual stereo channel и тд , еще 2 фильма будет в VHSRip , которых нет в сети совершенно а с народом поделиться охото ab (одноголосые переводы)
 
Показать сообщения:    


Вы не можете начинать темы
Вы не можете отвечать на сообщения
Вы не можете редактировать свои сообщения
Вы не можете удалять свои сообщения
Вы не можете голосовать в опросах
Вы не можете прикреплять файлы к сообщениям
Вы можете скачивать файлы