Loading...
Error

Скачать Штамм Андромеда / The Andromeda Strain (Роберт Уайз) [1971, фантастика, триллер, BDRip] [DVO]+[Sub] торрент без регистрации

 
Статистика раздачи
Размер:  1,8 GB   |    Скачан:  5366 раз
Сидов:  1  [  0 KB/s  ]  
 
Автор Сообщение

Marsianka

[] 

Название: Штамм Андромеда
Оригинальное название: The Andromeda Strain
Год выпуска: 1971
Жанр: фантастика, триллер
Выпущено: США, Universal Pictures
Режиссер: Роберт Уайз
В ролях: Джеймс Олсон, Кейт Рид, Дэвид Уэйн, Артур Хилл, Паула Келли, Джордж Митчелл, Рамон Биери, Кермит Мёрдок, Ричард ОБрайэн, Эрик Кристмас, Джо Ди Реда, Карл Райндел, Кен Соффорд, Фрэнсис Рейд, Ричард Булл, Харольд Дайренфорт, Джеймс В. Гэвин, Марк Дженкинс, Питер Хельм, Рубен Сингер, Питер Хоббс

О фильме: Фильм рассказывает историю о том, как вместе с космическим зондом на Землю попадает инопланетный вирус, способный вызывать мутацию у заражённых людей. Большей частью действия фильма разворачивается в сердце пустыни в подземной военной лаборатории, в которой учёные исследуют инопланетный вирус и пытаются найти способы противостоять ему. Фильм снят по одноимённому роману Майкла Крайтона.

Качество: BDRip
Видео: XviD, 1575 Кбит/с, 720x304
Аудио: Русский, английский (AC3, 2 ch, 192 Кбит/с)
Размер: 1.8 ГБ
Продолжительность: 02:10:37
Перевод: Профессиональный двухголосый
Субтитры: Английские

Исходник: ChuckNorriss (HDtracker)

Сравнение с исходником

Оскар, 1972 год
Номинации (2):
Лучшие декорации
Лучший монтаж

Золотой глобус, 1972 год
Номинации (1):
Лучший саундтрек
Общее
Полное имя : D:VideoShtamm Andromedy.1971.XviD.BDRipShtamm Andromedy.1971.eng.srt
Размер файла : 273 Кбайт

Общее
Полное имя : D:VideoShtamm Andromedy.1971.XviD.BDRipShtamm Andromedy.1971.Original.eng.ac3
Формат : AC-3
Формат/Информация : Audio Coding 3
Размер файла : 179 Мбайт
Продолжительность : 2 ч. 10 м.
Режим общего битрейта : Постоянный
Общий поток : 192 Кбит/сек

Аудио
Формат : AC-3
Формат/Информация : Audio Coding 3
Расширение режима : CM (complete main)
Параметр Endianness формата : Big
Продолжительность : 2 ч. 10 м.
Вид битрейта : Постоянный
Битрейт : 192 Кбит/сек
Каналы : 2 канала
Расположение каналов : Front: L R
Частота : 48,0 КГц
Битовая глубина : 16 бит
Метод сжатия : С потерями
Размер потока : 179 Мбайт (100%)

Общее
Полное имя : D:VideoShtamm Andromedy.1971.XviD.BDRipShtamm Andromedy.1971.XviD.BDRip.avi
Формат : AVI
Формат/Информация : Audio Video Interleave
Размер файла : 1,62 Гбайт
Продолжительность : 2 ч. 10 м.
Общий поток : 1777 Кбит/сек
Программа кодирования : VirtualDubMod 1.5.10.2 (build 2540/release)
Библиотека кодирования : VirtualDubMod build 2540/release

Видео
Идентификатор : 0
Формат : MPEG-4 Visual
Профиль формата : Advanced Simple@L5
Параметр BVOP формата : 1
Параметр QPel формата : Нет
Параметр GMC формата : Без точки перехода
Параметр матрицы формата : Default (H.263)
Режим смешивания : Сжатый битовый поток
Идентификатор кодека : XVID
Идентификатор кодека/Подсказка : XviD
Продолжительность : 2 ч. 10 м.
Битрейт : 1575 Кбит/сек
Ширина : 720 пикселей
Высота : 304 пикселя
Соотношение сторон : 2,35:1
Частота кадров : 23,976 кадра/сек
Цветовое пространство : YUV
Субдискретизация насыщенности : 4:2:0
Битовая глубина : 8 бит
Тип развёртки : Прогрессивная
Метод сжатия : С потерями
Бит/(Пиксели*Кадры) : 0.300
Размер потока : 1,44 Гбайт (89%)
Библиотека кодирования : XviD 1.2.1 (UTC 2008-12-04)

Аудио
Идентификатор : 1
Формат : AC-3
Формат/Информация : Audio Coding 3
Расширение режима : CM (complete main)
Параметр Endianness формата : Big
Идентификатор кодека : 2000
Продолжительность : 2 ч. 10 м.
Вид битрейта : Постоянный
Битрейт : 192 Кбит/сек
Каналы : 2 канала
Расположение каналов : Front: L R
Частота : 48,0 КГц
Битовая глубина : 16 бит
Метод сжатия : С потерями
Размер потока : 179 Мбайт (11%)
Выравнивание : Разделение по промежуткам
Продолжительность промежутка : 42 мс. (1,00 видеокадр)
Время предзагрузки промежутка : 500 мс.



Скачать Штамм.Андромеда.The.Andromeda.Strain.(Роберт.Уайз).[1971.фантастика.триллер.BDRip].[DVO]+[Sub].torrent без регистрации
Золото ЗОЛОТАЯ РАЗДАЧА! СКАЧАННОЕ НЕ ЗАСЧИТЫВАЕТСЯ! Золото
Дата: Зарегистрирован   [ Тип: внутренний ] Как тут cкачать?
MAGNET ссылка
MAGNET ссылка


Скачать .torrent

19 KB

Статус: проверено DHT
Скачан: торрент - 5366 раз, раздача полностью - 0 раз
Размер: 1,8 GB
Оценка:  - (Голосов: 0)
Поблагодарили: 0
Поделиться ссылкой на эту раздачу с друзьями:
В контактеFacebookОдноклассникиTwitterLivejournalМой МирLiveinternet
 

 
Показать сообщения:    


Вы не можете начинать темы
Вы не можете отвечать на сообщения
Вы не можете редактировать свои сообщения
Вы не можете удалять свои сообщения
Вы не можете голосовать в опросах
Вы не можете прикреплять файлы к сообщениям
Вы можете скачивать файлы