Loading...
Error

Скачать Основной инстинкт / Basic Instinct (Пол Верховен) [1992, триллер, детектив, BDRip-AVC] [MVO]+[VO]+[Sub]x2 торрент без регистрации

 
Статистика раздачи
Размер:  2,5 GB   |    Скачан:  158 раз
Сидов:  1  [  0 KB/s  ]  
 
Автор Сообщение

Marsianka

[] 

Основной инстинкт / Basic Instinct (1992) BDRip-AVC | iPad | P,P1


Название: Основной инстинкт
Оригинальное название: Basic Instinct
Год выхода: 1992
Жанр: триллер, детектив
Режиссер: Пол Верховен
В ролях: Майкл Дуглас, Шэрон Стоун, Джордж Дзундза, Джинн Трипплхорн, Дэнис Арндт, Лейлани Сарелл, Брюс А. Янг, Челси Росс, Дороти Мэлоун, Уэйн Найт

О фильме:
Детектив Ник Каррен ведет расследование по делу об извращенном убийстве на сексуальной почве. Подозрение падает на подругу убитого Кэтрин - писательницу, автора шокирующих романов, которая в своей последней книге подробно описала абсолютно аналогичное преступление.
Но обворожительная, неимоверно сексуальная писательница, обладает удивительной способностью манипулировать мужчинами, пробудив в них один из самых основных инстинктов.



Страна: США, Франция
Студия: Canal+ [fr], Carolco Pictures Inc., Lionsgate

Продолжительность: 02:08:14
Перевод: Русский профессиональный многоголосый закадровый, русский профессиональный одноголосый закадровый

Файл
Кодек: H.264
Качество: BDRip-AVC [576p]
Видео: 1024x436 (2.35:1) at 23.976 fps, AVC at 2300 kbps
1: АAС 2.0 150 kbps - Русский профессиональный многоголосый закадровый (CP-DIGITAL)
2: АAС 2.0 150 kbps - Русский профессиональный одноголосый закадровый (Горчаков)
3: АAС 2.0 140 kbps - Английский
Субтитры: русские, английские

General
Complete name : C:CREATE264mod1outBasic.Instinct.1992.576p.P.m4v
Format : MPEG-4
Codec ID : M4V
File size : 2.50 GiB
Duration : 2h 8mn
Overall bit rate mode : Variable
Overall bit rate : 2 794 Kbps
Movie name : Основной инстинкт
Performer : Paul Verhoeven
Genre : Drama
ContentType : Short Film
Deion : Детектив Ник Каррен ведет расследование по делу об извращенном убийстве на сексуальной почве. Подозрение падает на подругу убитого Кэтрин писательницу, автора шокирующих романов, которая в своей последней книге подробно описала абсолютно аналогично
Recorded date : UTC 1992-03-20 08:00:00
Encoded date : UTC 2014-04-27 14:13:13
Tagged date : UTC 2014-04-28 03:42:25
Copyright : Y 1992 Canal+DA. All Rights Reserved.
Cover : Yes
Comment : «Flesh seduces. Passion kills»
ContentRating : mpaa|R|400|

Title/Sort : Basic Instinct
LongDeion : Детектив Ник Каррен ведет расследование по делу об извращенном убийстве на сексуальной почве. Подозрение падает на подругу убитого Кэтрин писательницу, автора шокирующих романов, которая в своей последней книге подробно описала абсолютно аналогичное преступление. Но обворожительная, неимоверно сексуальная писательница, обладает удивительной способностью манипулировать мужчинами, пробудив в них один из самых основных инстинктов.
AppleStoreCatalogID : 352252649
Vendor : Apple:vendor_id:1992-2441

Video
ID : 1
Format : AVC
Format/Info : Advanced Video Codec
Format profile : High@L4.1
Format settings, CABAC : Yes
Format settings, ReFrames : 11 frames
Codec ID : avc1
Codec ID/Info : Advanced Video Coding
Duration : 2h 8mn
Bit rate : 2 332 Kbps
Maximum bit rate : 8 910 Kbps
Width : 1 024 pixels
Height : 436 pixels
Display aspect ratio : 2.35:1
Frame rate mode : Variable
Frame rate : 23.976 fps
Minimum frame rate : 23.946 fps
Maximum frame rate : 23.992 fps
Color space : YUV
Chroma subsampling : 4:2:0
Bit depth : 8 bits
Scan type : Progressive
Bits/(Pixel*Frame) : 0.218
Stream size : 2.09 GiB (83%)
Language : English
Encoded date : UTC 2014-04-27 14:13:13
Tagged date : UTC 2014-04-27 14:13:50
Matrix coefficients : BT.709

Audio #1
ID : 2
Format : AAC
Format/Info : Advanced Audio Codec
Format profile : LC
Codec ID : 40
Duration : 2h 8mn
Bit rate mode : Variable
Bit rate : 149 Kbps
Maximum bit rate : 174 Kbps
Channel(s) : 2 channels
Channel positions : Front: L R
Sampling rate : 48.0 KHz
Compression mode : Lossy
Stream size : 137 MiB (5%)
Title : MVO CP_DIGITAL
Language : Russian
Encoded date : UTC 2014-04-27 13:57:52
Tagged date : UTC 2014-04-27 14:13:50

Audio #2
ID : 3
Format : AAC
Format/Info : Advanced Audio Codec
Format profile : LC
Codec ID : 40
Duration : 2h 8mn
Bit rate mode : Variable
Bit rate : 152 Kbps
Maximum bit rate : 180 Kbps
Channel(s) : 2 channels
Channel positions : Front: L R
Sampling rate : 48.0 KHz
Compression mode : Lossy
Stream size : 140 MiB (5%)
Title : AVO Gorchakov
Language : Russian
Encoded date : UTC 2014-04-27 14:02:54
Tagged date : UTC 2014-04-27 14:13:50

Audio #3
ID : 4
Format : AAC
Format/Info : Advanced Audio Codec
Format profile : LC
Codec ID : 40
Duration : 2h 8mn
Bit rate mode : Variable
Bit rate : 140 Kbps
Maximum bit rate : 173 Kbps
Channel(s) : 2 channels
Channel positions : Front: L R
Sampling rate : 48.0 KHz
Compression mode : Lossy
Stream size : 128 MiB (5%)
Language : English
Encoded date : UTC 2014-04-27 14:06:17
Tagged date : UTC 2014-04-27 14:13:50

Text #1
ID : 5
Format : Timed Text
Muxing mode : sbtl
Codec ID : tx3g
Duration : 2h 2mn
Bit rate mode : Variable
Bit rate : 80 bps
Stream size : 71.6 KiB (0%)
Language : Russian
Encoded date : UTC 2014-04-27 14:13:49
Tagged date : UTC 2014-04-27 14:13:50

Text #2
ID : 6
Format : Timed Text
Muxing mode : sbtl
Codec ID : tx3g
Duration : 2h 2mn
Bit rate mode : Variable
Bit rate : 53 bps
Stream size : 47.4 KiB (0%)
Language : English
Encoded date : UTC 2014-04-27 14:13:49
Tagged date : UTC 2014-04-27 14:13:50


Sort Name: Basic Instinct
XID: Apple:vendor_id:1992-2441
Content ID: 352252649
Copyright: Y 1992 Canal+DA. All Rights Reserved.
ScreenWriters: Джо Эстерхаз
Producers: Алан Маршалл, Уильям С. Бисли, Луис ДЭспозито
Director: Пол Верховен
Cast: Майкл Дуглас, Шэрон Стоун, Джордж Дзундза, Джинн Трипплхорн, Дэнис Арндт, Лейлани Сарелл, Брюс А. Янг, Челси Росс, Дороти Мэлоун, Уэйн Найт // Michael Douglas (Det. Nick Curran), Sharon Stone (Catherine Tramell), George Dzundza (Gus Moran), Jeanne Tripplehorn (Dr. Beth Garner), Denis Arndt (Lt. Philip Walker), Leilani Sarelle (Roxy), Bruce A. Young (Andrews), Chelcie Ross (Capt. Talcott), Dorothy Malone (Hazel Dobkins), Wayne Knight (John Correli), Daniel von Bargen (Lt. Marty Nilsen), Stephen Tobolowsky (Dr. Lamott), Benjamin Mouton (Harrigan), Jack McGee (Sheriff), Bill Cable (Johnny Boz), Stephen Rowe (Internal Affairs Investigator), Mitch Pileggi (Internal Affairs Investigator), Mary Pat Gleason (Juvenile Officer), Freda Foh Shen (Berkeley Registrar), William Duff-Griffin (Dr. Myron), James Rebhorn (Dr. McElwaine), David Wells (Polygraph Examiner), Mary Ann Rodgers (Nurse), Adilah Barnes (Nurse), Irene Olga LЈpez (Maid), Juanita Jennings (Receptionist), Craig C. Lewis (Bartender / Police Bar), Michael David Lally (Detective), Peter Appel (Detective), Michael Halton (Bartender / Country Western Bar), Keith McDaniel (Featured Dancer), Eric Poppick (Coroner's Guy), Ron Cacas (Policeman), Kayla Blake (Roxy's Friend), Bradford English (Campus Policeman)
Rating: R
Long Deion: Детектив Ник Каррен ведет расследование по делу об извращенном убийстве на сексуальной почве. Подозрение падает на подругу убитого Кэтрин писательницу, автора шокирующих романов, которая в своей последней книге подробно описала абсолютно аналогичное преступление. Но обворожительная, неимоверно сексуальная писательница, обладает удивительной способностью манипулировать мужчинами, пробудив в них один из самых основных инстинктов.
Deion: Детектив Ник Каррен ведет расследование по делу об извращенном убийстве на сексуальной почве. Подозрение падает на подругу убитого Кэтрин писательницу, автора шокирующих романов, которая в своей последней книге подробно описала абсолютно аналогично
Release Date: 1992-03-20T08:00:00Z
Genre: Drama
Artist: Paul Verhoeven
Name: Основной инстинкт
Comments: «Flesh seduces. Passion kills»

x264 [info]: frame I:1182 Avg QP:15.24 size: 58624
x264 [info]: frame P:39291 Avg QP:17.74 size: 24817
x264 [info]: frame B:144031 Avg QP:19.83 size: 8323
x264 [info]: consecutive B-frames: 1.5% 2.4% 7.3% 21.7% 21.5% 34.0% 5.1% 2.6% 1.2% 1.5% 0.4% 0.4% 0.1% 0.3% 0.0%
x264 [info]: mb I I16..4: 4.7% 72.3% 22.9%
x264 [info]: mb P I16..4: 0.6% 11.6% 2.4% P16..4: 31.6% 38.8% 11.7% 2.1% 0.2% skip: 0.9%
x264 [info]: mb B I16..4: 0.1% 1.2% 0.3% B16..8: 37.4% 23.2% 3.3% direct: 6.7% skip:27.9% L0:39.4% L1:45.0% BI:15.6%
x264 [info]: 8x8 transform intra:78.1% inter:52.2%
x264 [info]: coded y,uvDC,uvAC intra: 91.3% 77.6% 48.9% inter: 27.6% 20.9% 5.7%
x264 [info]: i16 v,h,dc,p: 10% 12% 3% 76%
x264 [info]: i8 v,h,dc,ddl,ddr,vr,hd,vl,hu: 12% 8% 5% 9% 14% 14% 13% 12% 13%
x264 [info]: i4 v,h,dc,ddl,ddr,vr,hd,vl,hu: 28% 9% 3% 7% 12% 12% 11% 9% 10%
x264 [info]: i8c dc,h,v,p: 30% 29% 22% 19%
x264 [info]: Weighted P-Frames: Y:4.8% UV:2.6%
x264 [info]: ref P L0: 56.1% 9.8% 13.8% 6.1% 4.1% 3.1% 2.4% 1.4% 1.2% 1.0% 0.9% 0.1% 0.0%
x264 [info]: ref B L0: 85.3% 6.7% 3.1% 1.5% 1.0% 0.8% 0.6% 0.4% 0.3% 0.2%
x264 [info]: ref B L1: 94.7% 5.3%
x264 [info]: kb/s:2332.02








Скачать Основной.инстинкт.Basic.Instinct.(Пол.Верховен).[1992.триллер.детектив.BDRip-AVC].[MVO]+[VO]+[Sub]x2.torrent без регистрации
Золото ЗОЛОТАЯ РАЗДАЧА! СКАЧАННОЕ НЕ ЗАСЧИТЫВАЕТСЯ! Золото
Дата: Зарегистрирован   [ Тип: внутренний ] Как тут cкачать?
MAGNET ссылка
MAGNET ссылка


Скачать .torrent

13 KB

Статус: проверено DHT
Скачан: торрент - 158 раз, раздача полностью - 24 раз
Размер: 2,5 GB
Оценка:  - (Голосов: 0)
Поблагодарили: 1
Поделиться ссылкой на эту раздачу с друзьями:
В контактеFacebookОдноклассникиTwitterLivejournalМой МирLiveinternet
 

 
Показать сообщения:    


Вы не можете начинать темы
Вы не можете отвечать на сообщения
Вы не можете редактировать свои сообщения
Вы не можете удалять свои сообщения
Вы не можете голосовать в опросах
Вы не можете прикреплять файлы к сообщениям
Вы можете скачивать файлы