Loading...
Error

Скачать Освободите Вилли / Free Willy (Саймон Уинсер) [1993, драма, приключения, семейный, WEB-DLRip-AVC] [Dub]x2+[MVO]x2+[AVO]x2+[Оригинал]+[Sub] торрент без регистрации

 
Статистика раздачи
Размер:  2,73 GB   |    Скачан:  138 раз
Сидов:  1  [  0 KB/s  ]  
 
Автор Сообщение

Marsianka

[] 

Информация о фильме
Название: Освободите Вилли
Оригинальное название: Free Willy
Год выхода: 1993
Жанр: драма, приключения, семейный
Режиссер: Саймон Уинсер
В ролях: Джейсон Джеймс Рихтер, Лори Петти, Джейн Эткинсон, Аугуст Шелленберг, Майкл Мэдсен, Майкл Айронсайд, Ричард Риле, Майкелти Уильямсон, Майкл Бэколл

О фильме:
Касатка, или как еще называют это огромное морское животное, кит-убийца, был разлучен со своей семьей. Люди доставили его в парк развлечений, дали имя Вилли и ожидали, что смогут заработать на его представлениях кучи денег. В то же время зритель знакомится с мальчишкой Джесси, сбежавшим из дома и добывающим хлеб насущный воровством и попрошайничеством. Джесси находит новых, добрых родителей и ему нужно стереть всякие не очень приличные надписи, которые он нарисовал спреем в парке. И там-то и происходит встреча трудного подростка и кита-убийцы. Они полюбили друг друга с первого взгляда. А злой владелец парка развлечений по имени Диал уже понял, что зря переводит деньги на непослушного Вилли, и хочет его убить, чтобы получить страховку.



Страна: США, Франция
Студия: Alcor Films, Canal+, Donner/Shuler-Donner Productions, Regency Enterprises, Warner Bros. Pictures Co.
Продолжительность: 01:51:41
Перевод: Дублированный, профессиональный многоголосый, авторский

Файл
Кодек: MPEG-4 AVC
Качество: WEB-DLRip-AVC
Видео: 2249 Кбит/с, 1024x432
Звук: Русский (AC3, 2 ch, 192 Кбит/с), русский, английский (AAC, 2 ch, 160 Кбит/с)
Субтитры: Русские
Рип от StarbirS
За исходник спасибо Dreamcatcher

Aудио#1: Russian: 48 kHz, AAC, 2/0 (L,R) ch, ~160.00 kbps avg | Дублированный (iTunes Russia
Аудио#2: Russian: 48 kHz, AC3, 2/0 (L,R) ch, ~192.00 kbps avg | Дублированный (Гемини-Фильм)
Aудио#3: Russian: 48 kHz, AC3, 2/0 (L,R) ch, ~192.00 kbps avg | Многоголосый закадровый (ОРТ)
Aудио#4: Russian: 48 kHz, AC3, 2/0 (L,R) ch, ~192.00 kbps avg | Многоголосый закадровый (R5)
Aудио#5: Russian: 48 kHz, AC3, 2/0 (L,R) ch, ~192.00 kbps avg | Авторский одноголосый (В. Горчаков)
Aудио#6: Russian: 48 kHz, AC3, 2/0 (L,R) ch, ~192.00 kbps avg | Авторский одноголосый (А. Дольский)
Aудио#7: English: 48 kHz, AAC, 2/0 (L,R) ch, ~160.00 kbps avg | Оригинал

Субтитры: Русские (форс., полные)

Дублированный (Гемини-Фильм) с раздачи 52246
Многоголосый (R5) с раздачи spartac
Многоголосый (ОРТ, запись с ТВ через видеокассету и оцифровка) и Горчакова (оцифровка с лицензионной видеокассеты от "Лазер Видео"), спасибо Fikaloid
Перевод Дольского (оцифровка с кассеты) спасибо 21Sepsis

Работа со звуком JUSTKANT

Текст перевода ОРТ читали: Юрий Саранцев, Игорь Копченко и Людмила Гнилова

x264 [info]: frame I:1169 Avg QP:13.99 size: 72183
x264 [info]: frame P:43491 Avg QP:16.69 size: 22186
x264 [info]: frame B:116011 Avg QP:19.78 size: 7197
x264 [info]: consecutive B-frames: 1.8% 6.3% 5.5% 77.7% 4.6% 3.3% 0.3% 0.2% 0.1% 0.2%
Формат : Matroska
Версия формата : Version 4 / Version 2
Размер файла : 2,73 Гбайт
Продолжительность : 1 ч. 51 м.
Общий поток : 3499 Кбит/сек
Название фильма : Free.Willy.1993.D.P.A.WEB-DLRip.(AVC)
Дата кодирования : UTC 2014-04-28 04:21:50
Программа кодирования : mkvmerge v6.9.1 ('Blue Panther') 64bit built on Apr 18 2014 18:23:38
Библиотека кодирования : libebml v1.3.0 + libmatroska v1.4.1

Видео
Идентификатор : 1
Формат : AVC
Формат/Информация : Advanced Video Codec
Профиль формата : High@L4.1
Параметр CABAC формата : Да
Параметр ReFrames формата : 11 кадров
Идентификатор кодека : V_MPEG4/ISO/AVC
Продолжительность : 1 ч. 51 м.
Номинальный битрейт : 2249 Кбит/сек
Ширина : 1024 пикселя
Высота : 432 пикселя
Соотношение сторон : 2,40:1
Режим частоты кадров : Постоянный
Частота кадров : 23,976 кадра/сек
Цветовое пространство : YUV
Субдискретизация насыщенности : 4:2:0
Битовая глубина : 8 бит
Тип развёртки : Прогрессивная
Бит/(Пиксели*Кадры) : 0.212
Заголовок : Free.Willy.1993.D.P.A.WEB-DLRip.(AVC).by.StarbirS
Библиотека кодирования : x264 core 138 r2358 9e941d1
Настройки программы : cabac=1 / ref=11 / deblock=1:-3:-3 / analyse=0x3:0x133 / me=umh / subme=11 / psy=1 / psy_rd=1.00:0.00 / mixed_ref=1 / me_range=32 / chroma_me=1 / trellis=2 / 8x8dct=1 / cqm=0 / deadzone=21,11 / fast_pskip=1 / chroma_qp_offset=-2 / threads=12 / lookahead_threads=2 / sliced_threads=0 / nr=0 / decimate=1 / interlaced=0 / bluray_compat=0 / constrained_intra=0 / bframes=9 / b_pyramid=2 / b_adapt=2 / b_bias=0 / direct=3 / weightb=1 / open_gop=1 / weightp=2 / keyint=230 / keyint_min=23 / scenecut=40 / intra_refresh=0 / rc_lookahead=40 / rc=2pass / mbtree=1 / bitrate=2249 / ratetol=1.0 / qcomp=0.60 / qpmin=0 / qpmax=69 / qpstep=4 / cplxblur=20.0 / qblur=0.5 / ip_ratio=1.40 / aq=1:1.00
Язык : English
Default : Да
Forced : Нет

Аудио #1
Идентификатор : 2
Формат : AAC
Формат/Информация : Advanced Audio Codec
Профиль формата : LC
Идентификатор кодека : A_AAC
Продолжительность : 1 ч. 51 м.
Каналы : 2 канала
Расположение каналов : Front: L R
Частота : 48,0 КГц
Метод сжатия : С потерями
Заголовок : Дублированный (iTunes Russia)
Язык : Russian
Default : Да
Forced : Нет

Аудио #2
Идентификатор : 3
Формат : AC-3
Формат/Информация : Audio Coding 3
Расширение режима : CM (complete main)
Параметр Endianness формата : Big
Идентификатор кодека : A_AC3
Продолжительность : 1 ч. 51 м.
Вид битрейта : Постоянный
Битрейт : 192 Кбит/сек
Каналы : 2 канала
Расположение каналов : Front: L R
Частота : 48,0 КГц
Битовая глубина : 16 бит
Метод сжатия : С потерями
Размер потока : 153 Мбайт (5%)
Заголовок : Дублированный (Гемини-Фильм)
Язык : Russian
Default : Нет
Forced : Нет

Аудио #3
Идентификатор : 4
Формат : AC-3
Формат/Информация : Audio Coding 3
Расширение режима : CM (complete main)
Параметр Endianness формата : Big
Идентификатор кодека : A_AC3
Продолжительность : 1 ч. 51 м.
Вид битрейта : Постоянный
Битрейт : 192 Кбит/сек
Каналы : 2 канала
Расположение каналов : Front: L R
Частота : 48,0 КГц
Битовая глубина : 16 бит
Метод сжатия : С потерями
Размер потока : 153 Мбайт (5%)
Заголовок : Профессиональный многоголосый (ОРТ)
Язык : Russian
Default : Нет
Forced : Нет

Аудио #4
Идентификатор : 5
Формат : AC-3
Формат/Информация : Audio Coding 3
Расширение режима : CM (complete main)
Параметр Endianness формата : Big
Идентификатор кодека : A_AC3
Продолжительность : 1 ч. 51 м.
Вид битрейта : Постоянный
Битрейт : 192 Кбит/сек
Каналы : 2 канала
Расположение каналов : Front: L R
Частота : 48,0 КГц
Битовая глубина : 16 бит
Метод сжатия : С потерями
Размер потока : 153 Мбайт (5%)
Заголовок : Профессиональный многоголосый (R5)
Язык : Russian
Default : Нет
Forced : Нет

Аудио #5
Идентификатор : 6
Формат : AC-3
Формат/Информация : Audio Coding 3
Расширение режима : CM (complete main)
Параметр Endianness формата : Big
Идентификатор кодека : A_AC3
Продолжительность : 1 ч. 51 м.
Вид битрейта : Постоянный
Битрейт : 192 Кбит/сек
Каналы : 2 канала
Расположение каналов : Front: L R
Частота : 48,0 КГц
Битовая глубина : 16 бит
Метод сжатия : С потерями
Размер потока : 153 Мбайт (5%)
Заголовок : Авторский одноголосый (В. Горчаков)
Язык : Russian
Default : Нет
Forced : Нет

Аудио #6
Идентификатор : 7
Формат : AC-3
Формат/Информация : Audio Coding 3
Расширение режима : CM (complete main)
Параметр Endianness формата : Big
Идентификатор кодека : A_AC3
Продолжительность : 1 ч. 51 м.
Вид битрейта : Постоянный
Битрейт : 192 Кбит/сек
Каналы : 2 канала
Расположение каналов : Front: L R
Частота : 48,0 КГц
Битовая глубина : 16 бит
Метод сжатия : С потерями
Размер потока : 153 Мбайт (5%)
Заголовок : Авторский одноголосый (А. Дольский)
Язык : Russian
Default : Нет
Forced : Нет

Аудио #7
Идентификатор : 8
Формат : AAC
Формат/Информация : Advanced Audio Codec
Профиль формата : LC
Идентификатор кодека : A_AAC
Продолжительность : 1 ч. 51 м.
Каналы : 2 канала
Расположение каналов : Front: L R
Частота : 48,0 КГц
Метод сжатия : С потерями
Заголовок : Оригинал
Язык : English
Default : Нет
Forced : Нет

Текст #1
Идентификатор : 9
Формат : UTF-8
Идентификатор кодека : S_TEXT/UTF8
Идентификатор кодека/Информация : UTF-8 Plain Text
Заголовок : Русские (полные)
Язык : Russian
Default : Нет
Forced : Нет

Текст #2
Идентификатор : 10
Формат : UTF-8
Идентификатор кодека : S_TEXT/UTF8
Идентификатор кодека/Информация : UTF-8 Plain Text
Заголовок : Русские (форс.)
Язык : Russian
Default : Нет
Forced : Нет

Меню
00:00:00.000 : en:1. Opening Credits
00:02:25.000 : en:2. Whale Ballet
00:05:07.000 : en:3. Willy's Capture
00:08:16.000 : en:4. Scavengers
00:10:54.000 : en:5. Jesse's Capture
00:12:53.000 : en:6. A Few Changes
00:16:26.000 : en:7. The Greenwoods
00:18:54.000 : en:8. Randolph
00:23:08.000 : en:9. Special Cases
00:25:40.000 : en:10. Rules
00:29:18.000 : en:11. Music Hath Charms
00:31:41.000 : en:12. You Saved My Life
00:34:29.000 : en:13. "Maybe he Sees You"
00:37:05.000 : en:14. Botched Exam
00:43:27.000 : en:15. Perry Soulmates
00:46:33.000 : en:16. Partnered with Rae
00:49:30.000 : en:17. Tale of Natsaclane
00:53:15.000 : en:18. Growing Friendship
00:57:59.000 : en:19. Missed Connection
01:00:38.000 : en:20. Bye to Major Stuff
01:04:19.000 : en:21. Audition for Dial
01:10:15.000 : en:22. Stage Fright
01:12:40.000 : en:23. Alone
01:14:00.000 : en:24. Unpredictable
01:17:20.000 : en:25. Family Ties
01:20:07.000 : en:26. "Let's Free Willy"
01:23:36.000 : en:27. Out of the Tank
01:26:06.000 : en:28. Transport
01:28:28.000 : en:29. Old Forest Road
01:31:55.000 : en:30. Help from Gleen
01:33:04.000 : en:31. Nice Whale
01:35:57.000 : en:32. At Water's Edge
01:37:31.000 : en:33. Cornered Again
01:40:24.000 : en:34. "I Believe You"
01:41:41.000 : en:35. Families Head Home



Скачать Освободите.Вилли.Free.Willy.(Саймон.Уинсер).[1993.драма.приключения.семейный.WEB-DLRip-AVC].[Dub]x2+[MVO]x2+[AVO]x2+[Оригинал]+[Sub].torrent без регистрации
Золото ЗОЛОТАЯ РАЗДАЧА! СКАЧАННОЕ НЕ ЗАСЧИТЫВАЕТСЯ! Золото
Дата: Зарегистрирован   [ Тип: внутренний ] Как тут cкачать?
MAGNET ссылка
MAGNET ссылка


Скачать .torrent

14 KB

Статус: проверено DHT
Скачан: торрент - 138 раз, раздача полностью - 3 раз
Размер: 2,73 GB
Оценка:  - (Голосов: 0)
Поблагодарили: 1
Поделиться ссылкой на эту раздачу с друзьями:
В контактеFacebookОдноклассникиTwitterLivejournalМой МирLiveinternet
 

 
Показать сообщения:    


Вы не можете начинать темы
Вы не можете отвечать на сообщения
Вы не можете редактировать свои сообщения
Вы не можете удалять свои сообщения
Вы не можете голосовать в опросах
Вы не можете прикреплять файлы к сообщениям
Вы можете скачивать файлы