Loading...
Error

Скачать Освободите Вилли 2: Новое приключение / Free Willy 2: The Adventure Home (Дуайт Х. Литтл) [1995, драма, приключения, семейный, DVDRip-AVC] [MVO]+[Оригинал]+[Sub]x2 торрент без регистрации

 
Статистика раздачи
Размер:  2,19 GB   |    Скачан:  218 раз
Сидов:  1  [  0 KB/s  ]  
 
Автор Сообщение

Marsianka

[] 

Информация о фильме
Название: Освободите Вилли 2: Новое приключение
Оригинальное название: Free Willy 2: The Adventure Home
Год выхода: 1995
Жанр: драма, приключения, семейный
Режиссер: Дуайт Х. Литтл
В ролях: Джейсон Джеймс Рихтер, Фрэнсис Капра, Мэри Кейт Шеллхардт, Аугуст Шелленберг, Майкл Мэдсен, Джейн Эткинсон, Майкелти Уильямсон, Элизабет Пенья, Джон Тенни, Пол Туэрпе

Описание: Прошло два года с тех пор, как Вилли был выпущен на волю. Во время каникул Джесси с родителями отправляется на побережье, где люди часто видели одинокую косатку. Встреча старых друзей была радостной, но, к сожалению, недолгой: старый танкер сел на мель инефть, вытекающая из судна, поставила под угрозу жизнь Вилли и всех остальных обитателей океана.



Страна: Франция, США
Студия: Warner Bros. Pictures
Продолжительность: 01:33:51
Перевод #1: Профессиональный (Многоголосый, Закадровый)
Перевод #2: Английский (Оригинал)

Файл
Формат: MKV
Качество: DVDRip-AVC
Видео: 720x304 (2.35:1), 25.000 fps, 2564 kbps
Аудио #1: AC-3, 6 ch, 384 kbps (Многоголосый)
Аудио #2: AC-3, 6 ch, 384 kbps (Английский Оригинал)
Субтитры: Русские (Полные), Английские (Полные)
Скачать: Семпл
General
Unique ID : 192034555668387238879998848009887185446 (0x90788296B1450C938583181E4A0A7A26)
Complete name : Free.Willy.2.The.Adventure.Home.1995.DVDRip.AVC.mkv
Format : Matroska
Format version : Version 2
File size : 2.19 GiB
Duration : 1h 33mn
Overall bit rate : 3 336 Kbps
Encoded date : UTC 2013-10-28 05:06:22
Writing application : mkvmerge v5.6.0 ('Kenya Kane') built on May 27 2012 16:44:04
Writing library : libebml v1.2.3 + libmatroska v1.3.0

Video
ID : 1
Format : AVC
Format/Info : Advanced Video Codec
Format profile : High@L4.1
Format settings, CABAC : Yes
Format settings, ReFrames : 8 frames
Codec ID : V_MPEG4/ISO/AVC
Duration : 1h 33mn
Bit rate : 2 564 Kbps
Width : 720 pixels
Height : 304 pixels
Display aspect ratio : 2.35:1
Frame rate mode : Constant
Frame rate : 25.000 fps
Color space : YUV
Chroma subsampling : 4:2:0
Bit depth : 8 bits
Scan type : Progressive
Bits/(Pixel*Frame) : 0.469
Stream size : 1.64 GiB (75%)
Title : Освободите Вилли 2: Новое Приключение (1995 Год) (DVDRip-AVC)
Writing library : x264 core 130 r2273 b3065e6
Encoding settings : cabac=1 / ref=8 / deblock=1:-2:-2 / analyse=0x3:0x113 / me=tesa / subme=11 / psy=1 / psy_rd=1.00:0.00 / mixed_ref=1 / me_range=32 / chroma_me=1 / trellis=2 / 8x8dct=1 / cqm=0 / deadzone=21,11 / fast_pskip=1 / chroma_qp_offset=-2 / threads=6 / lookahead_threads=1 / sliced_threads=0 / nr=0 / decimate=1 / interlaced=0 / bluray_compat=0 / constrained_intra=0 / bframes=5 / b_pyramid=2 / b_adapt=2 / b_bias=0 / direct=3 / weightb=1 / open_gop=0 / weightp=2 / keyint=250 / keyint_min=25 / scenecut=40 / intra_refresh=0 / rc=2pass / mbtree=0 / bitrate=2564 / ratetol=1.0 / qcomp=0.60 / qpmin=0 / qpmax=69 / qpstep=4 / cplxblur=20.0 / qblur=0.5 / ip_ratio=1.40 / pb_ratio=1.30 / aq=1:1.00
Language : English
Default : Yes
Forced : No
Color primaries : BT.601 PAL
Transfer characteristics : BT.709
Matrix coefficients : BT.601

Audio #1
ID : 2
Format : AC-3
Format/Info : Audio Coding 3
Mode extension : CM (complete main)
Format settings, Endianness : Big
Codec ID : A_AC3
Duration : 1h 33mn
Bit rate mode : Constant
Bit rate : 384 Kbps
Channel(s) : 6 channels
Channel positions : Front: L C R, Side: L R, LFE
Sampling rate : 48.0 KHz
Bit depth : 16 bits
Compression mode : Lossy
Stream size : 258 MiB (12%)
Title : Многоголосый 5.1 (R5)
Language : Russian
Default : Yes
Forced : No

Audio #2
ID : 3
Format : AC-3
Format/Info : Audio Coding 3
Mode extension : CM (complete main)
Format settings, Endianness : Big
Codec ID : A_AC3
Duration : 1h 33mn
Bit rate mode : Constant
Bit rate : 384 Kbps
Channel(s) : 6 channels
Channel positions : Front: L C R, Side: L R, LFE
Sampling rate : 48.0 KHz
Bit depth : 16 bits
Compression mode : Lossy
Stream size : 258 MiB (12%)
Title : Английский 5.1 (Оригинал)
Language : English
Default : No
Forced : No

Text #1
ID : 4
Format : UTF-8
Codec ID : S_TEXT/UTF8
Codec ID/Info : UTF-8 Plain Text
Title : Русские (Полные)
Language : Russian
Default : No
Forced : No

Text #2
ID : 5
Format : VobSub
Codec ID : S_VOBSUB
Codec ID/Info : The same subtitle format used on DVDs
Title : Английские (Полные)
Language : English
Default : No
Forced : No



Скачать Освободите.Вилли.2.Новое.приключение.Free.Willy.2.The.Adventure.Home.(Дуайт.Х.Литтл).[1995.драма.приключения.семейный.DVDRip-AVC].[MVO]+[Оригинал]+[Sub]x2.torrent без регистрации
Золото ЗОЛОТАЯ РАЗДАЧА! СКАЧАННОЕ НЕ ЗАСЧИТЫВАЕТСЯ! Золото
Дата: Зарегистрирован   [ Тип: внутренний ] Как тут cкачать?
MAGNET ссылка
MAGNET ссылка


Скачать .torrent

12 KB

Статус: проверено DHT
Скачан: торрент - 218 раз, раздача полностью - 153 раз
Размер: 2,19 GB
Оценка:  - (Голосов: 0)
Поблагодарили: 1
Поделиться ссылкой на эту раздачу с друзьями:
В контактеFacebookОдноклассникиTwitterLivejournalМой МирLiveinternet
 

 
Показать сообщения:    


Вы не можете начинать темы
Вы не можете отвечать на сообщения
Вы не можете редактировать свои сообщения
Вы не можете удалять свои сообщения
Вы не можете голосовать в опросах
Вы не можете прикреплять файлы к сообщениям
Вы можете скачивать файлы