Loading...
Error

Скачать Охота на мужчину / La chasse a l'homme (Эдуар Молинаро) [1964, комедия, DVDRip-AVC] [DVO]+[VO] торрент без регистрации

 
Статистика раздачи
Размер:  1,85 GB   |    Скачан:  102 раза
Сидов:  1  [  0 KB/s  ]  
 
Автор Сообщение

Marsianka

[] 

Информация о фильме
Название: Охота на мужчину
Оригинальное название: La chasse a l'homme
Год выхода: 1964
Жанр: комедия
Режиссер: Эдуар Молинаро
В ролях: Жан-Поль Бельмондо, Катрин Денев, Жан-Клод Бриали, Франсуаза Дорлеак, Мари Лафоре, Клод Риш, Мари Дюбуа, Элен Дюк

Описание: Молодой донжуан Антуан наконец принимает решение связать себя узами брака. Его разведенный друг Жюльен пытается отговорить его от этого важного в жизненного шага. После бурного мальчишника в день свадьбы они отправляются с утра позавтракать в кафе, хозяин которого, Фернан, в сочных красках описывает Антуану все очарование семейной жизни. Фернан, бывший гуляка и сутенер, вынужден был после неприятностей с полицией уйти из своего опасного бизнеса и заняться работой поспокойней. Судьба бросила его в объятия скромной дочери хозяина кафе, которая всего за один год брака загнала Фернана под каблук. С грустью понаблюдав за их отношениями, друзья отправляются в церковь на бракосочетание. Теперь наступает очередь Жюльена рассказать историю о своей неудачной супружеской жизни.



Страна: Франция, Италия
Продолжительность: 01:27:01
Перевод: Профессиональный (двухголосый закадровый) + Профессиональный (одноголосый закадровый)

Файл
Кодек: H.264
Формат: MKV
Качество: DVDRip-AVC
Видео: 960x568, 25 fps, 2500 Кбит/сек
#1: AC3, 192 Кбит/сек, 2 ch - двухголосый
#2: AC3, 192 Кбит/сек, 2 ch - одноголосый
#3: AC3, 192 Кбит/сек, 2 ch - французский
Субтитры: Нет
Семпл
General
Unique ID : 200894718780666973368537361870305690455 (0x9722EA5B620C570B9390874923490357)
Complete name : D:torrentohota_na_mujchinu.1964fox-torrents.mkv
Format : Matroska
Format version : Version 1
File size : 1.85 GiB
Duration : 1h 27mn
Overall bit rate : 3 041 Kbps
Encoded date : UTC 2009-08-01 12:50:13
Writing application : mkvmerge v2.2.0 ('Turn It On Again') built on Mar 4 2008 13:20:25
Writing library : libebml v0.7.7 + libmatroska v0.8.1

Video
ID : 1
Format : AVC
Format/Info : Advanced Video Codec
Format profile : High@L4.1
Format settings, CABAC : Yes
Format settings, ReFrames : 2 frames
Codec ID : V_MPEG4/ISO/AVC
Duration : 1h 27mn
Bit rate : 2 500 Kbps
Width : 960 pixels
Height : 568 pixels
Display aspect ratio : 1.690
Frame rate mode : Constant
Frame rate : 25.000 fps
Color space : YUV
Chroma subsampling : 4:2:0
Bit depth : 8 bits
Scan type : MBAFF
Bits/(Pixel*Frame) : 0.183
Stream size : 1.50 GiB (81%)
Title : ice
Writing library : x264 core 65 r999kMod cc51047
Encoding settings : cabac=1 / ref=1 / deblock=0:0:0 / analyse=0x3:0x133 / me=hex / subme=6 / psy_rd=1.0:0.0 / mixed_ref=0 / me_range=16 / chroma_me=1 / trellis=0 / 8x8dct=1 / cqm=0 / deadzone=21,11 / chroma_qp_offset=-2 / threads=2 / thread_queue=2 / nr=0 / decimate=1 / mbaff=1 / bframes=3 / b_pyramid=0 / b_adapt=1 / b_bias=0 / direct=1 / wpredb=0 / keyint=250 / keyint_min=25 / scenecut=40(pre) / rc=abr / bitrate=2500 / ratetol=1.0 / qcomp=0.60 / qpmin=10 / qpmax=51 / qpstep=4 / ip_ratio=1.40 / pb_ratio=1.30 / aq=1:1.00
Language : French
Default : Yes
Forced : No

Audio #1
ID : 2
Format : AC-3
Format/Info : Audio Coding 3
Mode extension : CM (complete main)
Format settings, Endianness : Big
Codec ID : A_AC3
Duration : 1h 27mn
Bit rate mode : Constant
Bit rate : 192 Kbps
Channel count : 2 channels
Channel positions : Front: L R
Sampling rate : 48.0 KHz
Bit depth : 16 bits
Compression mode : Lossy
Stream size : 120 MiB (6%)
Language : Russian
Default : Yes
Forced : No

Audio #2
ID : 3
Format : AC-3
Format/Info : Audio Coding 3
Mode extension : CM (complete main)
Format settings, Endianness : Big
Codec ID : A_AC3
Duration : 1h 27mn
Bit rate mode : Constant
Bit rate : 128 Kbps
Channel count : 2 channels
Channel positions : Front: L R
Sampling rate : 48.0 KHz
Bit depth : 16 bits
Compression mode : Lossy
Stream size : 79.7 MiB (4%)
Language : Russian
Default : No
Forced : No

Audio #3
ID : 4
Format : AC-3
Format/Info : Audio Coding 3
Mode extension : CM (complete main)
Format settings, Endianness : Big
Codec ID : A_AC3
Duration : 1h 27mn
Bit rate mode : Constant
Bit rate : 192 Kbps
Channel count : 2 channels
Channel positions : Front: L R
Sampling rate : 48.0 KHz
Bit depth : 16 bits
Compression mode : Lossy
Stream size : 120 MiB (6%)
Language : French
Default : No
Forced : No



Скачать Охота.на.мужчину.La.chasse.a.l'homme.(Эдуар.Молинаро).[1964.комедия.DVDRip-AVC].[DVO]+[VO].torrent без регистрации
Золото ЗОЛОТАЯ РАЗДАЧА! СКАЧАННОЕ НЕ ЗАСЧИТЫВАЕТСЯ! Золото
Дата: Зарегистрирован   [ Тип: внутренний ] Как тут cкачать?
MAGNET ссылка
MAGNET ссылка


Скачать .torrent

19 KB

Статус: проверено DHT
Скачан: торрент - 102 раз, раздача полностью - 2 раз
Размер: 1,85 GB
Оценка:  - (Голосов: 0)
Поблагодарили: 1
Поделиться ссылкой на эту раздачу с друзьями:
В контактеFacebookОдноклассникиTwitterLivejournalМой МирLiveinternet
 

 
Показать сообщения:    


Вы не можете начинать темы
Вы не можете отвечать на сообщения
Вы не можете редактировать свои сообщения
Вы не можете удалять свои сообщения
Вы не можете голосовать в опросах
Вы не можете прикреплять файлы к сообщениям
Вы можете скачивать файлы