Loading...
Error

Скачать Семь / Se7en / Seven (Дэвид Финчер) [1995, триллер, криминал, детектив, BDRip-AVC] [MVO] торрент без регистрации

 
Статистика раздачи
Размер:  2,99 GB   |    Скачан:  190 раз

Полного источника не было: 24 минуты

 
Автор Сообщение

Marsianka

[] 

Семь / Se7en / Seven (1995) BDRip-AVC | iPad | P


Название: Семь
Оригинальное название: Se7en / Seven
Год выхода: 1995
Жанр: триллер, криминал, детектив
Режиссер: Дэвид Финчер
В ролях: Брэд Питт, Морган Фриман, Гвинет Пэлтроу, Кевин Спейси, Р. Ли Эрми, Ричард Шифф, Марк Бун Джуниор, Ричард Раундтри, Джон К. МакГинли, Рег Э. Кэти

О фильме:
Детектив Уильям Сомерсет ветеран уголовного сыска, мечтающий уйти на пенсию и уехать подальше от города и грешных обитателей. За 7 дней до пенсии на Сомерсета сваливаются две неприятности: молодой напарник Миллс и особо изощренное убийство. Острый ум опытного сыщика сразу определяет, что за этим преступлением, скорее всего, последуют другие. Новости подтверждают его догадку. Поняв, что убийца наказывает свои жертвы за совершенные ими смертные грехи, детектив встает перед выбором: вернуться к работе, либо уйти и передать дело своему менее опытному напарнику?..



Страна: США
Студия: Cecchi Gori Pictures, New Line Cinema

Продолжительность: 02:06:49
Перевод: Русский профессиональный многоголосый закадровый

Файл
Кодек: H.264
Качество: BDRip-AVC [576p]
Видео: 1024x426 (2.40:1) at 23.976 fps, AVC at 3000 kbps
1: АAС 2.0 144 kbps - Русский профессиональный многоголосый закадровый
2: АAС 2.0 144 kbps - Английский
Субтитры: отсутствуют

General
Complete name : C:CREATE264mod1outSe7en.1995.576p.P.m4v
Format : MPEG-4
Codec ID : M4V
File size : 2.99 GiB
Duration : 2h 6mn
Overall bit rate mode : Variable
Overall bit rate : 3 371 Kbps
Movie name : Семь
Performer : David Fincher
Genre : Thriller
ContentType : Short Film
Deion : Детектив Уильям Сомерсет ветеран уголовного сыска, мечтающий уйти на пенсию и уехать подальше от города и грешных обитателей. За 7 дней до пенсии на Сомерсета сваливаются две неприятности: молодой напарник Миллс и особо изощренное убийство.
Recorded date : UTC 1995-09-22 08:00:00
Encoded date : UTC 2014-04-29 07:32:46
Tagged date : UTC 2014-04-29 08:03:49
Copyright : Y 1995 New Line Productions, Inc. All rights reserved.
Cover : Yes
Comment : «Он возомнил себя Богом и начал карать...»
ContentRating : mpaa|R|400|

Title/Sort : Se7en
LongDeion : Детектив Уильям Сомерсет ветеран уголовного сыска, мечтающий уйти на пенсию и уехать подальше от города и грешных обитателей. За 7 дней до пенсии на Сомерсета сваливаются две неприятности: молодой напарник Миллс и особо изощренное убийство. Острый ум опытного сыщика сразу определяет, что за этим преступлением, скорее всего, последуют другие. Новости подтверждают его догадку.
AppleStoreCatalogID : 334314444
Vendor : Apple:vendor_id:1995-377

Video
ID : 1
Format : AVC
Format/Info : Advanced Video Codec
Format profile : High@L4.1
Format settings, CABAC : Yes
Format settings, ReFrames : 11 frames
Codec ID : avc1
Codec ID/Info : Advanced Video Coding
Duration : 2h 6mn
Bit rate : 3 070 Kbps
Maximum bit rate : 13.1 Mbps
Width : 1 024 pixels
Height : 426 pixels
Display aspect ratio : 2.40:1
Frame rate mode : Constant
Frame rate : 23.976 fps
Color space : YUV
Chroma subsampling : 4:2:0
Bit depth : 8 bits
Scan type : Progressive
Bits/(Pixel*Frame) : 0.294
Stream size : 2.72 GiB (91%)
Title : Se7en _1995_
Language : English
Encoded date : UTC 2014-04-29 07:32:46
Tagged date : UTC 2014-04-29 07:33:22
Matrix coefficients : BT.709

Audio #1
ID : 2
Format : AAC
Format/Info : Advanced Audio Codec
Format profile : LC
Codec ID : 40
Duration : 2h 6mn
Bit rate mode : Variable
Bit rate : 144 Kbps
Maximum bit rate : 175 Kbps
Channel(s) : 2 channels
Channel positions : Front: L R
Sampling rate : 48.0 KHz
Compression mode : Lossy
Stream size : 130 MiB (4%)
Title : MVO
Language : Russian
Encoded date : UTC 2014-04-29 07:25:15
Tagged date : UTC 2014-04-29 07:33:22

Audio #2
ID : 3
Format : AAC
Format/Info : Advanced Audio Codec
Format profile : LC
Codec ID : 40
Duration : 2h 6mn
Bit rate mode : Variable
Bit rate : 149 Kbps
Maximum bit rate : 177 Kbps
Channel(s) : 2 channels
Channel positions : Front: L R
Sampling rate : 48.0 KHz
Compression mode : Lossy
Stream size : 135 MiB (4%)
Title : Original
Language : English
Encoded date : UTC 2014-04-29 07:30:30
Tagged date : UTC 2014-04-29 07:33:22

Menu
ID : 4
Codec ID : text
Duration : 2h 6mn
Encoded date : UTC 2014-04-29 07:34:00
Tagged date : UTC 2014-04-29 07:34:00
Bit rate mode : CBR


Sort Name: Se7en
XID: Apple:vendor_id:1995-377
Content ID: 334314444
Copyright: Y 1995 New Line Productions, Inc. All rights reserved.
ScreenWriters: Эндрю Кевин Уокер
Producers: Филлис Карлайл, Арнольд Копельсон, Стивен Браун
Director: Дэвид Финчер
Cast: Брэд Питт, Морган Фриман, Гвинет Пэлтроу, Кевин Спейси, Р. Ли Эрми, Ричард Шифф, Марк Бун Джуниор, Ричард Раундтри, Джон К. МакГинли, Рег Э. Кэти // Brad Pitt (Detective David Mills), Morgan Freeman (Detective Lt. William Somerset), Gwyneth Paltrow (Tracy Mills), R. Lee Ermey (Police Captain), Andrew Kevin Walker (Dead Man), Kevin Spacey (John Doe), Daniel Zacapa (Detective Taylor), John Cassini (Officer Davis), Hawthorne James (George, Library Night Guard), Richard Roundtree (Dist. Atty. Martin Talbot), John C. McGinley (California), Richard Portnow (as Dr. Beardsley), Emily Wagner (as Detective Sara)
Rating: R
Long Deion: Детектив Уильям Сомерсет ветеран уголовного сыска, мечтающий уйти на пенсию и уехать подальше от города и грешных обитателей. За 7 дней до пенсии на Сомерсета сваливаются две неприятности: молодой напарник Миллс и особо изощренное убийство. Острый ум опытного сыщика сразу определяет, что за этим преступлением, скорее всего, последуют другие. Новости подтверждают его догадку.
Deion: Детектив Уильям Сомерсет ветеран уголовного сыска, мечтающий уйти на пенсию и уехать подальше от города и грешных обитателей. За 7 дней до пенсии на Сомерсета сваливаются две неприятности: молодой напарник Миллс и особо изощренное убийство.
Release Date: 1995-09-22T08:00:00Z
Genre: Thriller
Artist: David Fincher
Name: Семь
Comments: «Он возомнил себя Богом и начал карать...»

x264 [info]: frame I:1337 Avg QP:14.99 size: 68968
x264 [info]: frame P:37547 Avg QP:17.76 size: 28699
x264 [info]: frame B:143565 Avg QP:20.07 size: 12191
x264 [info]: consecutive B-frames: 1.7% 2.0% 6.2% 18.0% 19.6% 39.6% 5.0% 2.6% 1.6% 2.6% 0.4% 0.1% 0.2% 0.5% 0.1%
x264 [info]: mb I I16..4: 10.5% 59.9% 29.6%
x264 [info]: mb P I16..4: 0.7% 9.1% 2.3% P16..4: 31.1% 36.3% 12.7% 3.0% 0.4% skip: 4.4%
x264 [info]: mb B I16..4: 0.0% 2.2% 0.3% B16..8: 36.4% 18.4% 3.2% direct: 6.9% skip:32.7% L0:41.0% L1:44.2% BI:14.8%
x264 [info]: 8x8 transform intra:77.4% inter:40.8%
x264 [info]: coded y,uvDC,uvAC intra: 95.6% 70.6% 51.6% inter: 24.7% 10.9% 3.9%
x264 [info]: i16 v,h,dc,p: 9% 11% 11% 69%
x264 [info]: i8 v,h,dc,ddl,ddr,vr,hd,vl,hu: 9% 10% 15% 9% 12% 11% 12% 10% 13%
x264 [info]: i4 v,h,dc,ddl,ddr,vr,hd,vl,hu: 10% 8% 8% 11% 14% 13% 12% 11% 13%
x264 [info]: i8c dc,h,v,p: 32% 34% 17% 17%
x264 [info]: Weighted P-Frames: Y:5.1% UV:2.7%
x264 [info]: ref P L0: 53.8% 7.9% 15.2% 6.7% 4.7% 3.5% 2.8% 1.6% 1.4% 1.2% 1.1% 0.1% 0.0%
x264 [info]: ref B L0: 78.0% 9.1% 4.8% 2.4% 1.7% 1.3% 1.1% 0.7% 0.6% 0.4%
x264 [info]: ref B L1: 92.7% 7.3%
x264 [info]: kb/s:3069.80








Скачать Семь.Se7en.Seven.(Дэвид.Финчер).[1995.триллер.криминал.детектив.BDRip-AVC].[MVO].torrent без регистрации
Золото ЗОЛОТАЯ РАЗДАЧА! СКАЧАННОЕ НЕ ЗАСЧИТЫВАЕТСЯ! Золото
Дата: Зарегистрирован   [ Тип: внутренний ] Как тут cкачать?
MAGNET ссылка
MAGNET ссылка


Скачать .torrent

15 KB

Статус: проверено DHT
Скачан: торрент - 190 раз, раздача полностью - 282 раз
Размер: 2,99 GB
Оценка:  - (Голосов: 0)
Поблагодарили: 2
Поделиться ссылкой на эту раздачу с друзьями:
В контактеFacebookОдноклассникиTwitterLivejournalМой МирLiveinternet
 

 
Показать сообщения:    


Вы не можете начинать темы
Вы не можете отвечать на сообщения
Вы не можете редактировать свои сообщения
Вы не можете удалять свои сообщения
Вы не можете голосовать в опросах
Вы не можете прикреплять файлы к сообщениям
Вы можете скачивать файлы