Loading...
Error

Скачать Фарго / Fargo (Сезон 1, серии 01-02 из 10) (Мэтт Шекман, Скотт Уинант, Адам Бернштейн) [2014, драма, криминал, WEB-DLRip] [DVO] (Кубик в Кубе) [R.G Goldenshara] торрент без регистрации

 
Статистика раздачи
Размер:  1,48 GB   |    Скачан:  7621 раз
Сидов:  1  [  0 KB/s  ]  
 
Автор Сообщение

deadmauVlad

[] 



Фарго / Fargo


«Aw jeez, here we go again»

Год выпуска: 2014
Страна: США
Жанр: драма, криминал
Продолжительность: ~ 01:12:10 Серия
Перевод: Профессиональный (двухголосый) [Кубик в Кубе]
Субтитры: русские, английские (внешние, srt)

Режиссёры: Мэтт Шекман, Скотт Уинант, Адам Бернштейн
В ролях: Мартин Фриман, Билли Боб Торнтон, Боб Оденкёрк, Джули Энн Эмери, Колин Хэнкс, Джои Кинг, Оливер Платт, Кейт Уолш, Джошуа Клоуз, Спенсер Древер
Описание: Бродяга по имени Лорн приезжает в небольшой городок в штате Миннесота. Он поражает местное население своей злобой и жестокостью, а также подчиняет себе страхового агента Лестера…


Качество: WEB-DLRip
Формат: AVI
Видео кодек: XvID
Аудио кодек: MP3
Видео: 624x336 (1.86:1), 23.976 fps, XviD build 73 ~1200 kbps avg, 0.24 bit/pixel
Аудио #1: 48 kHz, MPEG Layer 3, 2 ch, ~128.00 kbps avg [Кубик в Кубе][DVO]
Аудио #2: 48 kHz, MPEG Layer 3, 2 ch, ~128.00 kbps avg [ENG]

Цитата:


R.G Goldenshara, Deadmauvlad
Озвучка: Кубик в Кубе
При поддержке: Андрюха Фадин

Код:

Общее
Полное имя                               : D:\Рипы выкладка [Deadmauvlad]\Рипы готовые\Fargo.S01.WEB-DLRip.Deadmauvlad.Kubik_v_Kube.(Sub_Rus,Eng)\Fargo.S01E01.WEB-DLRip.DVO.ENG.Deadmauvlad.avi
Формат                                   : AVI
Формат/Информация                        : Audio Video Interleave
Размер файла                             : 760 Мбайт
Продолжительность                        : 1 ч. 12 м.
Общий поток                              : 1471 Кбит/сек
Название фильма                          : Fargo.S01E01.WEB-DLRip.Kubik_v_Kube.ENG.Deadmauvlad
Режиссёр                                 : Deadmauvlad
Жанр                                     : драма, криминал
Программа кодирования                    : VirtualDubMod 1.5.10.3 | www.virtualdub-fr.org || (build 2550/release)
Библиотека кодирования                   : VirtualDubMod build 2550/release
Формат оригинала/Имя                     : Сериал
Правообладатель                          : Goldenshara
Примечание                               : Rus + ENG Sub

Видео
Идентификатор                            : 0
Формат                                   : MPEG-4 Visual
Профиль формата                          : Advanced Simple@L5
Параметр BVOP формата                    : 1
Параметр QPel формата                    : Нет
Параметр GMC формата                     : Без точки перехода
Параметр матрицы формата                 : Выборочная
Идентификатор кодека                     : XVID
Идентификатор кодека/Подсказка           : XviD
Продолжительность                        : 1 ч. 12 м.
Битрейт                                  : 1201 Кбит/сек
Ширина                                   : 624 пикселя
Высота                                   : 336 пикселей
Соотношение сторон                       : 1,85:1
Частота кадров                           : 23,976 кадра/сек
Цветовое пространство                    : YUV
Субдискретизация насыщенности            : 4:2:0
Битовая глубина                          : 8 бит
Тип развёртки                            : Прогрессивная
Метод сжатия                             : С потерями
Бит/(Пиксели*Кадры)                      : 0.239
Размер потока                            : 621 Мбайт (82%)
Библиотека кодирования                   : XviD 73

Аудио #1
Идентификатор                            : 1
Формат                                   : MPEG Audio
Версия формата                           : Version 1
Профиль формата                          : Layer 3
Идентификатор кодека                     : 55
Идентификатор кодека/Подсказка           : MP3
Продолжительность                        : 1 ч. 12 м.
Вид битрейта                             : Постоянный
Битрейт                                  : 128 Кбит/сек
Каналы                                   : 2 канала
Частота                                  : 48,0 КГц
Метод сжатия                             : С потерями
Размер потока                            : 66,1 Мбайт (9%)
Выравнивание                             : Соединение по промежуткам
Продолжительность промежутка             : 42  мс. (1,00 видеокадр)
Время предзагрузки промежутка            : 504  мс.
Библиотека кодирования                   : LAME3.99r
Настройки программы                      : -m s -V 4 -q 2 -lowpass 17 -b 128

Аудио #2
Идентификатор                            : 2
Формат                                   : MPEG Audio
Версия формата                           : Version 1
Профиль формата                          : Layer 3
Идентификатор кодека                     : 55
Идентификатор кодека/Подсказка           : MP3
Продолжительность                        : 1 ч. 12 м.
Вид битрейта                             : Постоянный
Битрейт                                  : 128 Кбит/сек
Каналы                                   : 2 канала
Частота                                  : 48,0 КГц
Метод сжатия                             : С потерями
Размер потока                            : 66,1 Мбайт (9%)
Выравнивание                             : Соединение по промежуткам
Продолжительность промежутка             : 42  мс. (1,00 видеокадр)
Время предзагрузки промежутка            : 504  мс.
Библиотека кодирования                   : LAME3.99r
Настройки программы                      : -m s -V 4 -q 0 -lowpass 17 -b 128

Общее
Полное имя                               : D:\Рипы выкладка [Deadmauvlad]\Рипы готовые\Fargo.S01.WEB-DLRip.Deadmauvlad.Kubik_v_Kube.(Sub_Rus,Eng)\Fargo.S01E01.WEB-DLRip.DVO.ENG.Deadmauvlad_eng.srt
Формат                                   : SubRip
Размер файла                             : 77,7 Кбайт

Текст
Формат                                   : SubRip
Метод сжатия                             : Без потерь

Общее
Полное имя                               : D:\Рипы выкладка [Deadmauvlad]\Рипы готовые\Fargo.S01.WEB-DLRip.Deadmauvlad.Kubik_v_Kube.(Sub_Rus,Eng)\Fargo.S01E01.WEB-DLRip.DVO.ENG.Deadmauvlad_rus.srt
Формат                                   : SubRip
Размер файла                             : 87,0 Кбайт

Текст
Формат                                   : SubRip
Метод сжатия                             : Без потерь

Общее
Полное имя                               : D:\Рипы выкладка [Deadmauvlad]\Рипы готовые\Fargo.S01.WEB-DLRip.Deadmauvlad.Kubik_v_Kube.(Sub_Rus,Eng)\Fargo.S01E02.WEB-DLRip.DVO.ENG.Deadmauvlad.avi
Формат                                   : AVI
Формат/Информация                        : Audio Video Interleave
Размер файла                             : 759 Мбайт
Продолжительность                        : 51 м.
Общий поток                              : 2066 Кбит/сек
Программа кодирования                    : VirtualDubMod 1.5.10.3 | www.virtualdub-fr.org || (build 2550/release)
Библиотека кодирования                   : VirtualDubMod build 2550/release

Видео
Идентификатор                            : 0
Формат                                   : MPEG-4 Visual
Профиль формата                          : Advanced Simple@L5
Параметр BVOP формата                    : 1
Параметр QPel формата                    : Нет
Параметр GMC формата                     : Без точки перехода
Параметр матрицы формата                 : Выборочная
Идентификатор кодека                     : XVID
Идентификатор кодека/Подсказка           : XviD
Продолжительность                        : 51 м.
Битрейт                                  : 1796 Кбит/сек
Ширина                                   : 624 пикселя
Высота                                   : 336 пикселей
Соотношение сторон                       : 1,85:1
Частота кадров                           : 23,976 кадра/сек
Цветовое пространство                    : YUV
Субдискретизация насыщенности            : 4:2:0
Битовая глубина                          : 8 бит
Тип развёртки                            : Прогрессивная
Метод сжатия                             : С потерями
Бит/(Пиксели*Кадры)                      : 0.357
Размер потока                            : 660 Мбайт (87%)
Библиотека кодирования                   : XviD 73

Аудио #1
Идентификатор                            : 1
Формат                                   : MPEG Audio
Версия формата                           : Version 1
Профиль формата                          : Layer 3
Идентификатор кодека                     : 55
Идентификатор кодека/Подсказка           : MP3
Продолжительность                        : 51 м.
Вид битрейта                             : Постоянный
Битрейт                                  : 128 Кбит/сек
Каналы                                   : 2 канала
Частота                                  : 48,0 КГц
Метод сжатия                             : С потерями
Размер потока                            : 47,0 Мбайт (6%)
Выравнивание                             : Соединение по промежуткам
Продолжительность промежутка             : 42  мс. (1,00 видеокадр)
Время предзагрузки промежутка            : 504  мс.
Библиотека кодирования                   : LAME3.99r
Настройки программы                      : -m s -V 4 -q 2 -lowpass 17 -b 128

Аудио #2
Идентификатор                            : 2
Формат                                   : MPEG Audio
Версия формата                           : Version 1
Профиль формата                          : Layer 3
Идентификатор кодека                     : 55
Идентификатор кодека/Подсказка           : MP3
Продолжительность                        : 51 м.
Вид битрейта                             : Постоянный
Битрейт                                  : 128 Кбит/сек
Каналы                                   : 2 канала
Частота                                  : 48,0 КГц
Метод сжатия                             : С потерями
Размер потока                            : 47,0 Мбайт (6%)
Выравнивание                             : Соединение по промежуткам
Продолжительность промежутка             : 42  мс. (1,00 видеокадр)
Время предзагрузки промежутка            : 504  мс.
Библиотека кодирования                   : LAME3.99r
Настройки программы                      : -m s -V 4 -q 2 -lowpass 17 -b 128

Общее
Полное имя                               : D:\Рипы выкладка [Deadmauvlad]\Рипы готовые\Fargo.S01.WEB-DLRip.Deadmauvlad.Kubik_v_Kube.(Sub_Rus,Eng)\Fargo.S01E02.WEB-DLRip.DVO.ENG.Deadmauvlad_rus.srt
Формат                                   : SubRip
Размер файла                             : 65,0 Кбайт

Текст
Формат                                   : SubRip
Метод сжатия                             : Без потерь

Общее
Полное имя                               : D:\Рипы выкладка [Deadmauvlad]\Рипы готовые\Fargo.S01.WEB-DLRip.Deadmauvlad.Kubik_v_Kube.(Sub_Rus,Eng)\Fargo.S01E02.WEB-DLRip.DVO.ENG.Deadmauvlad_rus_eng.srt
Формат                                   : SubRip
Размер файла                             : 56,7 Кбайт

Текст
Формат                                   : SubRip
Метод сжатия                             : Без потерь

Цитата:

10-ти серийный сериал основанный на фильме братьев Коэн, которые выступили исполнительными продюсерами сериала.Но история в сериале новая.
Внимание! Раздача ведётся путём добавления новых серий; при каждом добавлении создётся новый торрент. Чтобы начать докачку новой серии, пользователям необходимо сделать следующее:Остановить скачивание.
Удалить старый торрент у себя из клиента (старые серии удалять не надо).
Скачать новый торрент и запустить его у себя в клиенте вместо старого, при этом указать клиенту путь в старую папку куда и должно происходить скачивание новых серий.Ваш клиент при этом должен произвести хеширование (проверку) старой папки (если не производит сам - помогите ему сделать это), и будет докачивать только те серии которых у вас ещё нет. Старые серии при этом не удаляются, а продолжают раздаваться!
Eсли вы уже удалили старые серии, то предотвратить повторную закачку старых серий можно, отжав галочку в соответсвующих местах при запуске нового торрента. По возможности, желательно не удалять старые серии как можно дольше чтобы релизёр не столько продолжал раздавать старые серии, а смог сконцентрироваться на новых.



Скачать Фарго.Fargo.(Сезон.1.серии.01-02.из.10).(Мэтт.Шекман.Скотт.Уинант.Адам.Бернштейн).[2014.драма.криминал.WEB-DLRip].[DVO].(Кубик.в.Кубе).[R.G.Goldenshara].torrent без регистрации
Золото ЗОЛОТАЯ РАЗДАЧА! СКАЧАННОЕ НЕ ЗАСЧИТЫВАЕТСЯ! Золото
Дата: Зарегистрирован   [ Тип: внутренний ] Как тут cкачать?
MAGNET ссылка
MAGNET ссылка


Скачать .torrent

16 KB

Статус: проверено DHT
Скачан: торрент - 7621 раз, раздача полностью - 0 раз
Размер: 1,48 GB
Оценка:  5 (Голосов: 1)
Поблагодарили: 1
Поделиться ссылкой на эту раздачу с друзьями:
В контактеFacebookОдноклассникиTwitterLivejournalМой МирLiveinternet
 

 
Показать сообщения:    


Вы не можете начинать темы
Вы не можете отвечать на сообщения
Вы не можете редактировать свои сообщения
Вы не можете удалять свои сообщения
Вы не можете голосовать в опросах
Вы не можете прикреплять файлы к сообщениям
Вы можете скачивать файлы