Loading...
Error

Скачать Торн: Соня / Пуганая ворона / Thorne: Sleepyhead / Scaredy Cat (01х01-06 из 06) (Стивен Хопкинс, Бенжамин Росс) [2010, триллер, драма, криминал, детектив, HDRip] [DVO (AlexFilm)] торрент без регистрации

 
Статистика раздачи
Размер:  4,62 GB   |    Скачан:  118 раз
Сидов:  1  [  0 KB/s  ]  
 
Автор Сообщение

МихаНЕзатор

[] 

Информация о фильме
Название: Торн: Соня / Пуганая ворона
Оригинальное название: Thorne: Sleepyhead / Scaredy Cat
Год выхода: 2010
Жанр: триллер, драма, криминал, детектив
Режиссер: Стивен Хопкинс, Бенжамин Росс

В ролях: Эдди Марсан, Дэвид Моррисси, Наташа МакЭлхоун, Лоррейн Эшборн, Брана Байич, Джо Эбсолом, Джалех Альп, Фредди Эннобил-Доду, Марк Бэрроус, Клер Бенедикт, Стеф Брэмуэлл, Том Брук, Стивен Кэмпбелл Мур, Джошуа Клоуз

О фильме: Том Торн главный персонаж серии бестселлеров английского писателя Марка Биллингэма. Торн: Соня первая часть телевизионной версии романов Биллингэма (серии 1-3). Это захватывающий триллер о расследовании инспектора Торна загадочной серии убийств, в котором ему помогает единственная выжившая жертва, оказавшаяся после нападения в псевдокоме.
«Пуганая ворона» Вторая телевизионная история (серии 4-6). Мрачный и захватывающий триллер о расследовании инспектором Торном загадочной серии парных убийств, приведший к неожиданному финалу.



Страна: Великобритания, Австралия, Канада
Продолжительность: 6x ~ 00:44:00
Перевод: Профессиональный двухголосый закадровый (AlexFilm)

Файл
Кодек: XviD
Качество: HDRip
Видео: XviD, 720x400(16:9) ~ 2000 Kbps
Звук:
Аудио 1: AC3, 48 KHz 2 ch ~ 256 Kb/s русский
Аудио 2: AC3, 48 KHz 2 ch ~ 256 Kb/s английский
Субтитры: русские, английские (отдельно) *.ass, *.srt

АНОНСЫ ПОПУЛЯРНЫХ РАЗДАЧ

Общее
Полное имя : Q:TorFTorn.(1.sezon.1-6.serii.iz.6).2010.XviD.HDRipTorn.(1.sezon.1.seriya.iz.6).2010.XviD.HDRip.avi
Формат : AVI
Формат/Информация : Audio Video Interleave
Размер файла : 791 Мбайт
Продолжительность : 43 м.
Общий поток : 2526 Кбит/сек
Программа кодирования : VirtualDubMod 1.5.10.2 (build 2540/release)
Библиотека кодирования : VirtualDubMod build 2540/release

Видео
Идентификатор : 0
Формат : MPEG-4 Visual
Профиль формата : Advanced Simple@L5
Параметр BVOP формата : 1
Параметр QPel формата : Нет
Параметр GMC формата : Без точки перехода
Параметр матрицы формата : Default (MPEG)
Идентификатор кодека : XVID
Идентификатор кодека/Подсказка : XviD
Продолжительность : 43 м.
Битрейт : 2000 Кбит/сек
Ширина : 720 пикселей
Высота : 400 пикселей
Соотношение сторон : 16:9
Частота кадров : 25,000 кадров/сек
Цветовое пространство : YUV
Субдискретизация насыщенности : 4:2:0
Битовая глубина : 8 бит
Тип развёртки : Прогрессивная
Метод сжатия : С потерями
Бит/(Пиксели*Кадры) : 0.278
Размер потока : 626 Мбайт (79%)
Библиотека кодирования : XviD 1.2.1 (UTC 2008-12-04)

Аудио #1
Идентификатор : 1
Формат : AC-3
Формат/Информация : Audio Coding 3
Расширение режима : CM (complete main)
Идентификатор кодека : 2000
Продолжительность : 43 м.
Вид битрейта : Постоянный
Битрейт : 256 Кбит/сек
Каналы : 2 канала
Расположение каналов : Front: L R
Частота : 48,0 КГц
Битовая глубина : 16 бит
Метод сжатия : С потерями
Размер потока : 80,2 Мбайт (10%)
Выравнивание : Разделение по промежуткам
Продолжительность промежутка : 40 мс. (1,00 видеокадр)
Время предзагрузки промежутка : 500 мс.

Аудио #2
Идентификатор : 2
Формат : AC-3
Формат/Информация : Audio Coding 3
Расширение режима : CM (complete main)
Идентификатор кодека : 2000
Продолжительность : 43 м.
Вид битрейта : Постоянный
Битрейт : 256 Кбит/сек
Каналы : 2 канала
Расположение каналов : Front: L R
Частота : 48,0 КГц
Битовая глубина : 16 бит
Метод сжатия : С потерями
Размер потока : 80,2 Мбайт (10%)
Выравнивание : Разделение по промежуткам
Продолжительность промежутка : 40 мс. (1,00 видеокадр)
Время предзагрузки промежутка : 500 мс.



Скачать Торн.Соня.Пуганая.ворона.Thorne.Sleepyhead.Scaredy.Cat.(01х01-06.из.06).(Стивен.Хопкинс.Бенжамин.Росс).[2010.триллер.драма.криминал.детектив.HDRip].[DVO.(AlexFilm)].torrent без регистрации
Золото ЗОЛОТАЯ РАЗДАЧА! СКАЧАННОЕ НЕ ЗАСЧИТЫВАЕТСЯ! Золото
Дата: Зарегистрирован   [ Тип: внутренний ] Как тут cкачать?
MAGNET ссылка
MAGNET ссылка


Скачать .torrent

25 KB

Статус: проверено DHT
Скачан: торрент - 118 раз, раздача полностью - 22 раз
Размер: 4,62 GB
Оценка:  - (Голосов: 0)
Поблагодарили: 0
Поделиться ссылкой на эту раздачу с друзьями:
В контактеFacebookОдноклассникиTwitterLivejournalМой МирLiveinternet
 

 
Показать сообщения:    


Вы не можете начинать темы
Вы не можете отвечать на сообщения
Вы не можете редактировать свои сообщения
Вы не можете удалять свои сообщения
Вы не можете голосовать в опросах
Вы не можете прикреплять файлы к сообщениям
Вы можете скачивать файлы