Loading...
Error

Скачать Осторожно: бандиты! / Attention bandits! (Клод Лелуш) [1987, драма, DVDRip-AVC] [MVO]+[Sub] торрент без регистрации

 
Статистика раздачи
Размер:  2,15 GB   |    Скачан:  98 раз
Сидов:  1  [  0 KB/s  ]  
 
Автор Сообщение

Marsianka

[] 

Информация о фильме
Название: Осторожно: бандиты!
Оригинальное название: Attention bandits!
Год выхода: 1987
Жанр: драма
Режиссер: Клод Лелуш /Claude Lelouch/
В ролях: Жан Янн /Jean Yanne/, Мари-Софи Лелуш /Marie-Sophie Lelouch/, Патрик Брюэль /Patrick Bruel/, Шарль Жерар /Charles Gerard/, Корина Маршан /Corinne Marchand/, Элен Суржер /Helene Surgere/, Эдвиж Наварро /Edwige Navarro/, Франсуаз Бетт /Francoise Bette/, Эрве Фавр /Herve Favre/, Жан-Клод Бурбо /Jean-Claude Bourbault/, Кристин Барбеливьен /Christine Barbelivien/, Жан-Мишель Дюпуа /Jean-Michel Dupuis/, Оливье Крувелье /Olivier Cruveiller/, Хавье Мали /Xavier Maly/, Анушка /Anouchka/, Лаура Фавали /Laura Favali/, Гунилла Карлзен /Gunilla Karlzen/, Эжен Бертье /Eugene Berthier/, Рауль Бийре /Raoul Billerey/, Мишель Амфу /Michel Amphoux/, Мирей Одибер /Mireille Audibert/, Гийом Буржуа /Guillaume Bourgois/, Эрве Брио /Herve Briaux/, Эрик Дениз /Eric Denize/, Бернар Фрей /Bernard Freyd/, Жан-Клод Фриссунг /Jean-Claude Frissung/, Жан-Жак Лагард /Jean-Jacques Lagarde/, Жан-Клод Легэ /Jean-Claude Leguay/, Мартин Лелуш /Martine Lelouch/, Рафаэль Мингарт /Raphael Mingart/, Анри Морван /Henri Morvan/, Ален Олливье /Alain Ollivier/, Димитри Радочевич /Dimitri Radochevitch/, Бернар Шпигель /Bernard Spiegel/

О фильме:
После десятилетнего заключения известный гангстер Фресне выходит на свободу, одержимый единственной целью, отомстить за погибшую жену. Фресне забирает свою дочь, которая все это время воспитывалась в престижном швейцарском пансионе и начинает разрабатывать план мести. Теперь девочке предстоит познакомиться с криминальным миром, полным опасных приключений, похищений и бандитских разборок.


Страна: Франция
Продолжительность: 01:43:20
Перевод: Профессиональный (многоголосый закадровый)

Файл
Кодек: h.264
Качество: DVDRip-AVC
Видео: 712x432 (2.35:1) @ 1022x432 (анаморф), 25.000 fps, AVC, ~2589 Kbps, 0.337 bits/pixel
Русский, 48.0 KHz, AC3, 2 ch, 192 Kbps
Французский, 48.0 KHz, AC3, 2 ch, 192 Kbps
Субтитры: Русские, VobSub
Исходник R5 Neoclassica
Общее
Уникальный идентификатор : 178424696446053147983159182973128469787 (0x863B58B8D5E2435096ABEA653378ED1B)
Полное имя : D:FilmsOstorozhno_bandity.1987.DVDRip-AVC.mkv
Формат : Matroska
Версия формата : Version 4 / Version 2
Размер файла : 2,15 Гбайт
Продолжительность : 1 ч. 43 м.
Общий поток : 2976 Кбит/сек
Дата кодирования : UTC 2013-07-22 14:27:52
Программа кодирования : mkvmerge v6.2.0 ('Promised Land') built on Apr 28 2013 12:22:01
Библиотека кодирования : libebml v1.3.0 + libmatroska v1.4.0

Видео
Идентификатор : 1
Формат : AVC
Формат/Информация : Advanced Video Codec
Профиль формата : High@L4.1
Параметр CABAC формата : Да
Параметр ReFrames формата : 16 кадров
Идентификатор кодека : V_MPEG4/ISO/AVC
Продолжительность : 1 ч. 43 м.
Битрейт : 2589 Кбит/сек
Ширина : 712 пикселей
Высота : 432 пикселя
Соотношение сторон : 2,35:1
Соотношение сторон в оригинале : 2,35:1
Режим частоты кадров : Постоянный
Частота кадров : 25,000 кадров/сек
Цветовое пространство : YUV
Субдискретизация насыщенности : 4:2:0
Битовая глубина : 8 бит
Тип развёртки : Прогрессивная
Бит/(Пиксели*Кадры) : 0.337
Размер потока : 1,83 Гбайт (85%)
Библиотека кодирования : x264 core 133 r2334 a3ac64b
Настройки программы : cabac=1 / ref=16 / deblock=1:0:0 / analyse=0x3:0x133 / me=umh / subme=10 / psy=1 / psy_rd=1.05:0.10 / mixed_ref=1 / me_range=32 / chroma_me=1 / trellis=2 / 8x8dct=1 / cqm=0 / deadzone=21,11 / fast_pskip=0 / chroma_qp_offset=-3 / threads=8 / lookahead_threads=1 / sliced_threads=0 / nr=0 / decimate=0 / interlaced=0 / bluray_compat=0 / constrained_intra=0 / bframes=9 / b_pyramid=2 / b_adapt=2 / b_bias=0 / direct=3 / weightb=1 / open_gop=0 / weightp=2 / keyint=250 / keyint_min=25 / scenecut=40 / intra_refresh=0 / rc_lookahead=60 / rc=2pass / mbtree=0 / bitrate=2589 / ratetol=1.0 / qcomp=0.60 / qpmin=0 / qpmax=60 / qpstep=4 / cplxblur=20.0 / qblur=0.5 / vbv_maxrate=50000 / vbv_bufsize=62500 / nal_hrd=none / ip_ratio=1.40 / pb_ratio=1.30 / aq=1:1.00
Default : Нет
Forced : Нет
Коэффициенты матрицы : BT.601

Аудио #1
Идентификатор : 2
Формат : AC-3
Формат/Информация : Audio Coding 3
Расширение режима : CM (complete main)
Параметр Endianness формата : Big
Идентификатор кодека : A_AC3
Продолжительность : 1 ч. 43 м.
Вид битрейта : Постоянный
Битрейт : 192 Кбит/сек
Каналы : 2 канала
Расположение каналов : Front: L R
Частота : 48,0 КГц
Битовая глубина : 16 бит
Метод сжатия : С потерями
Размер потока : 142 Мбайт (6%)
Язык : Russian
Default : Да
Forced : Нет

Аудио #2
Идентификатор : 3
Формат : AC-3
Формат/Информация : Audio Coding 3
Профиль формата : Dolby Digital
Расширение режима : CM (complete main)
Параметр Endianness формата : Big
Идентификатор кодека : A_AC3
Продолжительность : 1 ч. 43 м.
Вид битрейта : Постоянный
Битрейт : 192 Кбит/сек
Каналы : 2 канала
Расположение каналов : Front: L R
Частота : 48,0 КГц
Битовая глубина : 16 бит
Метод сжатия : С потерями
Размер потока : 142 Мбайт (6%)
Язык : French
Default : Нет
Forced : Нет

Текст
Идентификатор : 4
Формат : VobSub
Режим смешивания : zlib
Идентификатор кодека : S_VOBSUB
Идентификатор кодека/Информация : The same subtitle format used on DVDs
Язык : Russian
Default : Нет
Forced : Нет

Меню
00:00:00.000 : en:Chapter 01
00:07:26.120 : en:Chapter 02
00:16:51.800 : en:Chapter 03
00:24:42.680 : en:Chapter 04
00:35:51.440 : en:Chapter 05
00:45:24.840 : en:Chapter 06
00:52:20.720 : en:Chapter 07
00:59:36.080 : en:Chapter 08
01:06:11.600 : en:Chapter 09
01:13:35.360 : en:Chapter 10
01:18:31.440 : en:Chapter 11
01:27:18.040 : en:Chapter 12
01:33:23.400 : en:Chapter 13
01:37:19.040 : en:Chapter 14
01:43:19.920 : en:Chapter 15
x264 [info]: frame I:867 Avg QP:15.89 size: 50880
frame P:30571 Avg QP:18.42 size: 25215
frame B:123572 Avg QP:20.45 size: 9638
Релиз от: Temperest



Скачать Осторожно.бандиты!.Attention.bandits!.(Клод.Лелуш).[1987.драма.DVDRip-AVC].[MVO]+[Sub].torrent без регистрации
Золото ЗОЛОТАЯ РАЗДАЧА! СКАЧАННОЕ НЕ ЗАСЧИТЫВАЕТСЯ! Золото
Дата: Зарегистрирован   [ Тип: внутренний ] Как тут cкачать?
MAGNET ссылка
MAGNET ссылка


Скачать .torrent

11 KB

Статус: проверено DHT
Скачан: торрент - 98 раз, раздача полностью - 0 раз
Размер: 2,15 GB
Оценка:  - (Голосов: 0)
Поблагодарили: 1
Поделиться ссылкой на эту раздачу с друзьями:
В контактеFacebookОдноклассникиTwitterLivejournalМой МирLiveinternet
 

 
Показать сообщения:    


Вы не можете начинать темы
Вы не можете отвечать на сообщения
Вы не можете редактировать свои сообщения
Вы не можете удалять свои сообщения
Вы не можете голосовать в опросах
Вы не можете прикреплять файлы к сообщениям
Вы можете скачивать файлы