Loading...
Error

Скачать Черепашки-ниндзя / Teenage Mutant Ninja Turtles (Стив Бэррон / Steve Barron) [1990, фантастика, боевик, драма, комедия, BDRip-AVC] [MVO] (ТО "Немое кино") + 2x[AVO] (Юрий Живов, Вартан Дохалов) + [Sub Rus, Eng] + Original Eng торрент без регистрации

 
Статистика раздачи
Размер:  2,96 GB   |    Скачан:  122 раза
Сидов:  1  [  0 KB/s  ]  
 
Автор Сообщение

leon030982

[] 

Черепашки-ниндзя / Teenage Mutant Ninja Turtles


Год выпуска: 1990
Страна: США, Гонконг
Жанр: фантастика, боевик, драма, комедия
Продолжительность: 01:33:34
Перевод 1: Любительский (многоголосый, закадровый) ТО "Немое кино"
Перевод 2: Авторский (одноголосый, закадровый) Юрий Живов
Перевод 3: Авторский (одноголосый, закадровый) Вартан Дохалов [отдельным файлом]
Cубтитры: русские, английские
Оригинальная аудиодорожка: английский

Режиссер: Стив Бэррон / Steve Barron

В ролях: Джош Пэйс, Мишлен Систи, Лейф Тильден, Дэвид Форман, Робби Рист, Кори Фельдман, Брайан Точи, Джудит Хоаг, Элиас Котеас, Майкл Терни

Описание: Четыре черепашки и крыса в канализационных трубах Нью-Йорка вляпались в радиационные отходы, мутировали и превратились в человеческого роста разумных черепашек, а крыса, которая раньше жила у японского мастера ниндзя-цу, обучила их боевым искусствам.
Черепашки Леонардо, Рафаэль, Микеланджело и Донателло подружились с тележурналисткой и помогли остановить рост молодежной преступности.

Сэмпл

Качество видео: BDRip-AVC
Формат: MKV
Видео кодек: AVC
Аудио кодек: AC3
Видео: 1072x600 (16:9), 23.976 fps, AVC, ~3000 Kbps, 0.195 bits/pixel
Аудио 1: Russian, 48.0 KHz, AC3, 6 ch, 448 Kbps - ТО "Немое Кино"
Аудио 2: Russian, 48.0 KHz, AC3, 6 ch, 448 Kbps - Юрий Живов
Аудио 3: English, 48.0 KHz, AC3, 6 ch, 448 Kbps
Аудио 4: Russian, 48.0 KHz, AC3, 2 ch, 192 Kbps - Вартан Дохалов [отдельным файлом]

Цитата:

За оцифровку VHS с переводом Дохалова спасибо Kino-profan, ранее выложенный перевод убит шумодавом.
General
Unique ID : 208653487626041548253706255522436736307 (0x9CF9333204EAA0CD9FA91FE4B4D3E533)
Complete name : D:\Teenage Mutant Ninja Turtles\Teenage Mutant Ninja Turtles.mkv
Format : Matroska
Format version : Version 4 / Version 2
File size : 2.84 GiB
Duration : 1h 33mn
Overall bit rate : 4 343 Kbps
Encoded date : UTC 2014-02-28 14:59:23
Writing application : mkvmerge v6.7.0 ('Back to the Ground') 64bit built on Jan 8 2014 15:10:52
Writing library : libebml v1.3.0 + libmatroska v1.4.1
Video
ID : 1
Format : AVC
Format/Info : Advanced Video Codec
Format profile : High@L4.0
Format settings, CABAC : Yes
Format settings, ReFrames : 9 frames
Codec ID : V_MPEG4/ISO/AVC
Duration : 1h 33mn
Bit rate : 3 000 Kbps
Width : 1 072 pixels
Height : 600 pixels
Display aspect ratio : 16:9
Frame rate mode : Constant
Frame rate : 23.976 fps
Color space : YUV
Chroma subsampling : 4:2:0
Bit depth : 8 bits
Scan type : Progressive
Bits/(Pixel*Frame) : 0.195
Stream size : 1.90 GiB (67%)
Writing library : x264 core 133 r2334 a3ac64b
Encoding settings : cabac=1 / ref=9 / deblock=1:-1:-1 / analyse=0x3:0x133 / me=umh / subme=10 / psy=1 / psy_rd=1.00:0.10 / mixed_ref=1 / me_range=32 / chroma_me=1 / trellis=2 / 8x8dct=1 / cqm=0 / deadzone=21,11 / fast_pskip=0 / chroma_qp_offset=-3 / threads=6 / lookahead_threads=1 / sliced_threads=0 / nr=0 / decimate=1 / interlaced=0 / bluray_compat=0 / constrained_intra=0 / bframes=10 / b_pyramid=2 / b_adapt=2 / b_bias=0 / direct=3 / weightb=1 / open_gop=0 / weightp=2 / keyint=250 / keyint_min=23 / scenecut=40 / intra_refresh=0 / rc_lookahead=50 / rc=2pass / mbtree=1 / bitrate=3000 / ratetol=1.0 / qcomp=0.60 / qpmin=0 / qpmax=69 / qpstep=4 / cplxblur=20.0 / qblur=0.5 / ip_ratio=1.40 / aq=1:1.00
Default : Yes
Forced : No
Audio #1
ID : 2
Format : AC-3
Format/Info : Audio Coding 3
Mode extension : CM (complete main)
Format settings, Endianness : Big
Codec ID : A_AC3
Duration : 1h 33mn
Bit rate mode : Constant
Bit rate : 448 Kbps
Channel count : 6 channels
Channel positions : Front: L C R, Side: L R, LFE
Sampling rate : 48.0 KHz
Bit depth : 16 bits
Compression mode : Lossy
Stream size : 300 MiB (10%)
Title : ТО "Немое Кино"
Language : Russian
Default : No
Forced : No
Audio #2
ID : 3
Format : AC-3
Format/Info : Audio Coding 3
Mode extension : CM (complete main)
Format settings, Endianness : Big
Codec ID : A_AC3
Duration : 1h 33mn
Bit rate mode : Constant
Bit rate : 448 Kbps
Channel count : 6 channels
Channel positions : Front: L C R, Side: L R, LFE
Sampling rate : 48.0 KHz
Bit depth : 16 bits
Compression mode : Lossy
Stream size : 300 MiB (10%)
Title : Юрий Живов
Language : Russian
Default : No
Forced : No
Audio #3
ID : 4
Format : AC-3
Format/Info : Audio Coding 3
Mode extension : CM (complete main)
Format settings, Endianness : Big
Codec ID : A_AC3
Duration : 1h 33mn
Bit rate mode : Constant
Bit rate : 448 Kbps
Channel count : 6 channels
Channel positions : Front: L C R, Side: L R, LFE
Sampling rate : 48.0 KHz
Bit depth : 16 bits
Compression mode : Lossy
Stream size : 300 MiB (10%)
Language : English
Default : No
Forced : No
Text #1
ID : 5
Format : UTF-8
Codec ID : S_TEXT/UTF8
Codec ID/Info : UTF-8 Plain Text
Language : Russian
Default : No
Forced : No
Text #2
ID : 6
Format : UTF-8
Codec ID : S_TEXT/UTF8
Codec ID/Info : UTF-8 Plain Text
Language : English
Default : No
Forced : No
Menu
00:00:00.000 : en:Chapter 1
00:04:55.294 : en:Chapter 2
00:09:14.595 : en:Chapter 3
00:11:18.511 : en:Chapter 4
00:14:35.916 : en:Chapter 5
00:16:07.965 : en:Chapter 6
00:19:14.111 : en:Chapter 7
00:21:15.607 : en:Chapter 8
00:26:06.898 : en:Chapter 9
00:27:21.139 : en:Chapter 10
00:28:20.699 : en:Chapter 11
00:33:10.321 : en:Chapter 12
00:36:22.054 : en:Chapter 13
00:49:29.466 : en:Chapter 14
00:55:35.040 : en:Chapter 15
00:58:57.825 : en:Chapter 16
01:06:06.045 : en:Chapter 17
01:12:04.653 : en:Chapter 18
01:16:45.684 : en:Chapter 19
01:24:14.506 : en:Chapter 20



Скачать Черепашки-ниндзя.Teenage.Mutant.Ninja.Turtles.(Стив.Бэррон.Steve.Barron).[1990.фантастика.боевик.драма.комедия.BDRip-AVC].[MVO].(ТО."Немое.кино").+.2x[AVO].(Юрий.Живов.Вартан.Дохалов).+.[Sub.Rus.Eng].+.Original.Eng.torrent без регистрации
Золото ЗОЛОТАЯ РАЗДАЧА! СКАЧАННОЕ НЕ ЗАСЧИТЫВАЕТСЯ! Золото
Дата: Зарегистрирован   [ Тип: внутренний ] Как тут cкачать?
MAGNET ссылка
MAGNET ссылка


Скачать .torrent

16 KB

Статус: проверено DHT
Скачан: торрент - 122 раз, раздача полностью - 16 раз
Размер: 2,96 GB
Оценка:  5 (Голосов: 1)
Поблагодарили: 4
Поделиться ссылкой на эту раздачу с друзьями:
В контактеFacebookОдноклассникиTwitterLivejournalМой МирLiveinternet
 

 
Показать сообщения:    


Вы не можете начинать темы
Вы не можете отвечать на сообщения
Вы не можете редактировать свои сообщения
Вы не можете удалять свои сообщения
Вы не можете голосовать в опросах
Вы не можете прикреплять файлы к сообщениям
Вы можете скачивать файлы