Loading...
Error

Скачать Шофер мисс Дэйзи / Driving Miss Daisy (Брюс Бересфорд) [1989, драма, комедия, BDRip-AVC] [MVO] торрент без регистрации

 
Статистика раздачи
Размер:  2,8 GB   |    Скачан:  104 раза
Сидов:  1  [  0 KB/s  ]  
 
Автор Сообщение

Marsianka

[] 

Шофер мисс Дэйзи / Driving Miss Daisy (1989) BDRip-AVC | iPad | P


Название: Шофер мисс Дэйзи
Оригинальное название: Driving Miss Daisy
Год выхода: 1989
Жанр: драма, комедия
Режиссер: Брюс Бересфорд
В ролях: Морган Фриман, Джессика Тэнди, Дэн Эйкройд, Пэтти ЛюПон, Эстер Ролли, Joann Havrilla, Уильям Холл мл., Элвин М. Шугарман

О фильме:
В Атланте, в богатом квартале, живет пожилая дама - мисс Дэйзи. Ей уже трудно водить машину самой, и сын присылает к ней шофера - чернокожего Хоука Колберна.
Вскоре новый водитель становится ближайшим другом и советчиком своей хозяйки, что вызывает волну возмущения у соседей, враждебно настроенных по отношению к чернокожим...



Страна: США
Студия: Zanuck Company, The, Majestic Films International

Продолжительность: 01:39:25
Перевод: Русский профессиональный многоголосый закадровый

Файл
Кодек: H.264
Качество: BDRip-AVC [576p]
Видео: 1024x554 (1.85:1) at 23.976 fps, AVC at 4200 kbps
1: АAС 2.0 132 kbps - Русский профессиональный многоголосый закадровый
2: АAС 2.0 144 kbps - Английский
Субтитры: отсутствуют

General
Complete name : I:modoutDriving.Miss.Daisy.1989.576p.P.m4v
Format : MPEG-4
Codec ID : M4V
File size : 2.80 GiB
Duration : 1h 28mn
Overall bit rate mode : Variable
Overall bit rate : 4 510 Kbps
Movie name : Шофер Мисс Дэйзи
Performer : Bruce Beresford
Genre : Drama
ContentType : Short Film
Deion : В Атланте, в богатом квартале, живет пожилая дама мисс Дэйзи. Ей уже трудно водить машину самой, и сын присылает к ней шофера чернокожего Хоука Колберна.Вскоре новый водитель становится ближайшим другом и советчиком своей хозяйки.
Recorded date : UTC 1989-12-13 08:00:00
Encoded date : UTC 2014-04-30 16:26:49
Tagged date : UTC 2014-04-30 20:10:31
Copyright : Y 1989 Warner Bros.Entertaniment Inc. All Rights Reserved.
Cover : Yes
Comment : «The funny, touching and totally irresistible story of a working relationship that became a 25-year friendship»
ContentRating : mpaa|PG|200|

Title/Sort : Driving Miss Daisy
LongDeion : В Атланте, в богатом квартале, живет пожилая дама мисс Дэйзи. Ей уже трудно водить машину самой, и сын присылает к ней шофера чернокожего Хоука Колберна.Вскоре новый водитель становится ближайшим другом и советчиком своей хозяйки, что вызывает волну возмущения у соседей, враждебно настроенных по отношению к чернокожим.
AppleStoreCatalogID : 292037536
Vendor : Apple:vendor_id:1989-6066

Video
ID : 1
Format : AVC
Format/Info : Advanced Video Codec
Format profile : High@L4.1
Format settings, CABAC : Yes
Format settings, ReFrames : 10 frames
Codec ID : avc1
Codec ID/Info : Advanced Video Coding
Duration : 1h 28mn
Bit rate : 4 222 Kbps
Maximum bit rate : 15.2 Mbps
Width : 1 024 pixels
Height : 554 pixels
Display aspect ratio : 1.85:1
Frame rate mode : Constant
Frame rate : 23.976 fps
Color space : YUV
Chroma subsampling : 4:2:0
Bit depth : 8 bits
Scan type : Progressive
Bits/(Pixel*Frame) : 0.310
Stream size : 2.62 GiB (94%)
Title : Driving Miss Daisy _1989_
Language : English
Encoded date : UTC 2014-04-30 16:26:49
Tagged date : UTC 2014-04-30 16:27:18
Matrix coefficients : BT.709

Audio #1
ID : 2
Format : AAC
Format/Info : Advanced Audio Codec
Format profile : LC
Codec ID : 40
Duration : 1h 28mn
Bit rate mode : Variable
Bit rate : 132 Kbps
Maximum bit rate : 222 Kbps
Channel(s) : 2 channels
Channel positions : Front: L R
Sampling rate : 48.0 KHz
Compression mode : Lossy
Stream size : 85.8 MiB (3%)
Title : MVO
Language : Russian
Encoded date : UTC 2014-04-30 16:19:24
Tagged date : UTC 2014-04-30 16:27:18

Audio #2
ID : 3
Format : AAC
Format/Info : Advanced Audio Codec
Format profile : LC
Codec ID : 40
Duration : 1h 28mn
Bit rate mode : Variable
Bit rate : 144 Kbps
Maximum bit rate : 222 Kbps
Channel(s) : 2 channels
Channel positions : Front: L R
Sampling rate : 48.0 KHz
Compression mode : Lossy
Stream size : 90.5 MiB (3%)
Title : Original
Language : English
Encoded date : UTC 2014-04-30 16:24:31
Tagged date : UTC 2014-04-30 16:27:18

Menu
ID : 4
Codec ID : text
Duration : 1h 28mn
Encoded date : UTC 2014-04-30 16:27:44
Tagged date : UTC 2014-04-30 16:27:44
Bit rate mode : CBR


Sort Name: Driving Miss Daisy
XID: Apple:vendor_id:1989-6066
Content ID: 292037536
Copyright: Y 1989 Warner Bros.Entertaniment Inc. All Rights Reserved.
ScreenWriters: Альфред Ури
Producers: Лили Фини Занук, Ричард Д. Занук, Дэвид Браун
Director: Брюс Бересфорд
Cast: Морган Фриман, Джессика Тэнди, Дэн Эйкройд, Пэтти ЛюПон, Эстер Ролли, Джоан Хаврилла, Уильям Холл мл., Элвин М. Шугарман, Клариса Ф. Гейгерман, Мюриэль Мур // Morgan Freeman (Hoke Colburn), Jessica Tandy (Daisy Werthan), Dan Aykroyd (Boolie Werthan), Patti LuPone (Florine Werthan), Esther Rolle (Idella), Joann Havrilla (Miss McClatchey), William Hall Jr. (Oscar), Clarice F. Geigerman (Nonie), Muriel Moore (Miriam), Sylvia Kaler (Beulah)
Rating: PG
Long Deion: В Атланте, в богатом квартале, живет пожилая дама мисс Дэйзи. Ей уже трудно водить машину самой, и сын присылает к ней шофера чернокожего Хоука Колберна.Вскоре новый водитель становится ближайшим другом и советчиком своей хозяйки, что вызывает волну возмущения у соседей, враждебно настроенных по отношению к чернокожим.
Deion: В Атланте, в богатом квартале, живет пожилая дама мисс Дэйзи. Ей уже трудно водить машину самой, и сын присылает к ней шофера чернокожего Хоука Колберна.Вскоре новый водитель становится ближайшим другом и советчиком своей хозяйки.
Release Date: 1989-12-13T08:00:00Z
Genre: Drama
Artist: Bruce Beresford
Name: Шофер Мисс Дэйзи
Comments: «The funny, touching and totally irresistible story of a working relationship that became a 25-year friendship»

x264 [info]: frame I:798 Avg QP:15.98 size:113195
x264 [info]: frame P:26073 Avg QP:17.87 size: 48198
x264 [info]: frame B:101160 Avg QP:19.59 size: 14541
x264 [info]: consecutive B-frames: 1.5% 0.7% 5.1% 16.5% 22.7% 49.6% 2.6% 0.7% 0.6% 0.1% 0.0%
x264 [info]: mb I I16..4: 10.3% 67.1% 22.6%
x264 [info]: mb P I16..4: 0.5% 14.3% 1.4% P16..4: 27.2% 35.6% 16.6% 3.4% 0.5% skip: 0.5%
x264 [info]: mb B I16..4: 0.0% 1.4% 0.1% B16..8: 32.9% 18.1% 3.6% direct:11.6% skip:32.4% L0:36.9% L1:41.4% BI:21.7%
x264 [info]: 8x8 transform intra:87.0% inter:42.6%
x264 [info]: coded y,uvDC,uvAC intra: 98.1% 65.6% 37.7% inter: 35.9% 18.1% 4.8%
x264 [info]: i16 v,h,dc,p: 5% 6% 16% 73%
x264 [info]: i8 v,h,dc,ddl,ddr,vr,hd,vl,hu: 10% 9% 14% 9% 12% 11% 11% 11% 12%
x264 [info]: i4 v,h,dc,ddl,ddr,vr,hd,vl,hu: 11% 8% 5% 10% 14% 14% 13% 12% 13%
x264 [info]: i8c dc,h,v,p: 24% 37% 21% 18%
x264 [info]: Weighted P-Frames: Y:6.0% UV:3.6%
x264 [info]: ref P L0: 49.4% 10.5% 14.5% 7.2% 5.2% 4.1% 3.4% 2.1% 1.9% 1.7% 0.2% 0.0%
x264 [info]: ref B L0: 90.9% 3.8% 2.0% 1.0% 0.7% 0.6% 0.5% 0.3% 0.2%
x264 [info]: ref B L1: 97.6% 2.4%
x264 [info]: kb/s:4221.70


















Скачать Шофер.мисс.Дэйзи.Driving.Miss.Daisy.(Брюс.Бересфорд).[1989.драма.комедия.BDRip-AVC].[MVO].torrent без регистрации
Золото ЗОЛОТАЯ РАЗДАЧА! СКАЧАННОЕ НЕ ЗАСЧИТЫВАЕТСЯ! Золото
Дата: Зарегистрирован   [ Тип: внутренний ] Как тут cкачать?
MAGNET ссылка
MAGNET ссылка


Скачать .torrent

15 KB

Статус: проверено DHT
Скачан: торрент - 104 раз, раздача полностью - 4 раз
Размер: 2,8 GB
Оценка:  - (Голосов: 0)
Поблагодарили: 1
Поделиться ссылкой на эту раздачу с друзьями:
В контактеFacebookОдноклассникиTwitterLivejournalМой МирLiveinternet
 

 
Показать сообщения:    


Вы не можете начинать темы
Вы не можете отвечать на сообщения
Вы не можете редактировать свои сообщения
Вы не можете удалять свои сообщения
Вы не можете голосовать в опросах
Вы не можете прикреплять файлы к сообщениям
Вы можете скачивать файлы