Loading...
Error

Скачать Убежище / Логово / Hideaway (Бретт Леонард) [1995, ужасы, фэнтези, триллер, HDTVRip-AVC] [MVO]x2+[Sub] торрент без регистрации

 
Статистика раздачи
Размер:  2,18 GB   |    Скачан:  102 раза
Сидов:  1  [  0 KB/s  ]  
 
Автор Сообщение

Marsianka

[] 

Название: Убежище
Оригинальное название: Hideaway
Год выпуска: 1995
Жанр: ужасы, фэнтези, триллер
Выпущено: TriStar Pictures, США
Продолжительность: 01:41:35
Перевод: Профессиональный многоголосый
Субтитры: английские

Режиссер: Бретт Леонард

В ролях: Джефф Голдблюм, Кристина Лахти, Алисия Силверстоун, Джереми Систо, Альфред Молина, Рэй Доун Чонг, Кеннет Уэлш, Сьюзи Йоахим, Ширли Бродерик, Том МакБет, Джоэли Коллинз, Роджер Р. Кросс, Майкл Джеймс МакДональд, Дон С. Дэвис, Ребекка Тулан, Хиро Канагава, Джейми Нокс, Норма Жан Уик, Тиффани Фостер, Мара Дуронслет, Айрис Куинн, Наташа Морли, Сара Стрэйндж

О фильме:
Антиквар Хэтч Харрисон вместе с женой и дочерью попал в страшную автомобильную аварию. Жена и дочь выжили. Два часа врачи отчаянно боролись за Хэтча, находившегося в состоянии клинической смерти. Доктору Ниберну все же удалось вернуть его к жизни. Но после выздоровления с Харрисоном начинает происходить что-то странное: его преследуют галлюцинации - четкие картины изощренных убийств...



Качество: HDTVRip(AVC)
Формат: MKV
Видео: MPEG-4 AVC, 2689 Кбит/с, 1024 х 576
Аудио 1: Русский, AC3, 2 ch, 192 Kbps 48,0 КГц - Профессиональный (многоголосый, закадровый)- ТВ3
Аудио 2: Русский, AC3, 2 ch, 192 Kbps 48,0 КГц - Профессиональный (многоголосый, закадровый)
Format : Matroska
Format version : Version 4 / Version 2
File size : 2.18 GiB
Duration : 1h 41mn
Overall bit rate : 3 075 Kbps
Movie name : Hideaway
Encoded date : UTC 2014-04-30 19:19:06
Writing application : mkvmerge v6.9.1 ('Blue Panther') 64bit built on Apr 18 2014 18:23:38
Writing library : libebml v1.3.0 + libmatroska v1.4.1
Attachment : Yes

Video
ID : 1
Format : AVC
Format/Info : Advanced Video Codec
Format profile : High@L4.1
Format settings, CABAC : Yes
Format settings, ReFrames : 5 frames
Codec ID : V_MPEG4/ISO/AVC
Duration : 1h 41mn
Bit rate : 2 689 Kbps
Width : 1 024 pixels
Height : 576 pixels
Display aspect ratio : 16:9
Frame rate mode : Constant
Frame rate : 25.000 fps
Color space : YUV
Chroma subsampling : 4:2:0
Bit depth : 8 bits
Scan type : Progressive
Bits/(Pixel*Frame) : 0.182
Stream size : 1.87 GiB (86%)
Writing library : x264 core 138 r2358 9e941d1
Encoding settings : cabac=1 / ref=5 / deblock=1:-1:-1 / analyse=0x3:0x133 / me=umh / subme=10 / psy=1 / psy_rd=1.00:0.00 / mixed_ref=1 / me_range=32 / chroma_me=1 / trellis=2 / 8x8dct=1 / cqm=0 / deadzone=21,11 / fast_pskip=1 / chroma_qp_offset=-2 / threads=12 / lookahead_threads=1 / sliced_threads=0 / nr=0 / decimate=1 / interlaced=0 / bluray_compat=0 / constrained_intra=0 / bframes=5 / b_pyramid=2 / b_adapt=2 / b_bias=0 / direct=3 / weightb=1 / open_gop=0 / weightp=2 / keyint=240 / keyint_min=23 / scenecut=40 / intra_refresh=0 / rc=2pass / mbtree=0 / bitrate=2689 / ratetol=1.0 / qcomp=0.60 / qpmin=0 / qpmax=69 / qpstep=4 / cplxblur=20.0 / qblur=0.5 / ip_ratio=1.40 / pb_ratio=1.30 / aq=1:1.00
Language : English
Default : Yes
Forced : No

Audio #1
ID : 2
Format : AC-3
Format/Info : Audio Coding 3
Mode extension : CM (complete main)
Format settings, Endianness : Big
Codec ID : A_AC3
Duration : 1h 41mn
Bit rate mode : Constant
Bit rate : 192 Kbps
Channel(s) : 2 channels
Channel positions : Front: L R
Sampling rate : 48.0 KHz
Bit depth : 16 bits
Compression mode : Lossy
Stream size : 140 MiB (6%)
Title : MVO TV3 AC3 192 kbps
Language : Russian
Default : No
Forced : No

Audio #2
ID : 3
Format : AC-3
Format/Info : Audio Coding 3
Mode extension : CM (complete main)
Format settings, Endianness : Big
Codec ID : A_AC3
Duration : 1h 41mn
Bit rate mode : Constant
Bit rate : 192 Kbps
Channel(s) : 2 channels
Channel positions : Front: L R
Sampling rate : 48.0 KHz
Bit depth : 16 bits
Compression mode : Lossy
Stream size : 140 MiB (6%)
Title : MVO AC3 2.0 192 kbps
Language : Russian
Default : No
Forced : No

Text
ID : 4
Format : UTF-8
Codec ID : S_TEXT/UTF8
Codec ID/Info : UTF-8 Plain Text
Language : English
Default : No
Forced : No



Скачать Убежище.Логово.Hideaway.(Бретт.Леонард).[1995.ужасы.фэнтези.триллер.HDTVRip-AVC].[MVO]x2+[Sub].torrent без регистрации
Золото ЗОЛОТАЯ РАЗДАЧА! СКАЧАННОЕ НЕ ЗАСЧИТЫВАЕТСЯ! Золото
Дата: Зарегистрирован   [ Тип: внутренний ] Как тут cкачать?
MAGNET ссылка
MAGNET ссылка


Скачать .torrent

11 KB

Статус: проверено DHT
Скачан: торрент - 102 раз, раздача полностью - 4 раз
Размер: 2,18 GB
Оценка:  - (Голосов: 0)
Поблагодарили: 1
Поделиться ссылкой на эту раздачу с друзьями:
В контактеFacebookОдноклассникиTwitterLivejournalМой МирLiveinternet
 

 
Показать сообщения:    


Вы не можете начинать темы
Вы не можете отвечать на сообщения
Вы не можете редактировать свои сообщения
Вы не можете удалять свои сообщения
Вы не можете голосовать в опросах
Вы не можете прикреплять файлы к сообщениям
Вы можете скачивать файлы