Loading...
Error

Скачать В погоне за счастьем / The Pursuit of Happyness (Габриэле Муччино) [2006, драма, биография, BDRip-AVC] [Dub] торрент без регистрации

 
Статистика раздачи
Размер:  2,64 GB   |    Скачан:  174 раза
Сидов:  2  [  0 KB/s  ]  
 
Автор Сообщение

Marsianka

[] 

В погоне за счастьем / The Pursuit of Happyness (2006) BDRip-AVC | iPad | D


Название: В погоне за счастьем
Оригинальное название: The Pursuit of Happyness
Год выхода: 2006
Жанр: драма, биография
Режиссер: Габриэле Муччино
В ролях: Уилл Смит, Джейден Смит, Тэнди Ньютон, Брайан Хау, Джеймс Карен, Дэн Кастелланета, Курт Фуллер, Такайо Фишер, Кевин Уэст, Джордж Чунг

О фильме:
Крис Гарднер отец одиночка. Воспитывая пятилетнего сына, Крис изо всех сил старается сделать так, чтобы ребенок рос счастливым. Работая продавцом, он не может оплатить квартиру, и их выселяют.
Оказавшись на улице, но не желая сдаваться, отец устраивается специалистом в брокерскую компанию. Только и там его доходы далеки от нормальных. Но Крис поклялся себе во что бы то ни стало вырастить сына, и никакие трудности его не остановят



Страна: США
Студия: Columbia Pictures Corporation, Escape Artists, Overbrook Entertainment, Relativity Media

Продолжительность: 01:57:27
Перевод: Русский дублированный

Файл
Кодек: H.264
Качество: BDRip-AVC [576p]
Видео: 1024x426 (2.40:1) at 23.976 fps, AVC at 3000 kbps
1: АAС 2.0 132 kbps - Английский
2: АAС 2.0 132 kbps - Русский дублированный
Субтитры: отсутствуют

General
Complete name : C:CREATE264mod1outThe.Pursuit.of.Happyness.2006.576p.D.m4v
Format : MPEG-4
Codec ID : M4V
File size : 2.64 GiB
Duration : 1h 57mn
Overall bit rate mode : Variable
Overall bit rate : 3 214 Kbps
Movie name : В погоне за счастьем
Performer : Gabriele Muccino
Genre : Drama
ContentType : Short Film
Deion : Крис Гарднер отец одиночка. Воспитывая пятилетнего сына, Крис изо всех сил старается сделать так, чтобы ребенок рос счастливым. Работая продавцом, он не может оплатить квартиру, и их выселяют.
Recorded date : UTC 2006-12-15 08:00:00
Encoded date : UTC 2014-04-30 20:17:16
Tagged date : UTC 2014-04-30 20:24:23
Copyright : Y 2006 Columbia Pictures Industries, Inc. and GH One LLC. All Rights Reserved.
Cover : Yes
Comment : «Никому не позволяй говорить, будто ты чего-то не можешь... У тебя есть мечта - защищай её»
ContentRating : mpaa|PG-13|300|

Title/Sort : The Pursuit of Happyness
LongDeion : Крис Гарднер отец одиночка. Воспитывая пятилетнего сына, Крис изо всех сил старается сделать так, чтобы ребенок рос счастливым. Работая продавцом, он не может оплатить квартиру, и их выселяют.Оказавшись на улице, но не желая сдаваться, отец устраивается специалистом в брокерскую компанию. Только и там его доходы далеки от нормальных. Но Крис поклялся себе во чтобы то ни стало вырастить сына, и никакие трудности его не остановят.
AppleStoreCatalogID : 280708827
Vendor : Apple:vendor_id:2006-104938

Video
ID : 1
Format : AVC
Format/Info : Advanced Video Codec
Format profile : High@L4.1
Format settings, CABAC : Yes
Format settings, ReFrames : 11 frames
Codec ID : avc1
Codec ID/Info : Advanced Video Coding
Duration : 1h 57mn
Bit rate : 2 929 Kbps
Maximum bit rate : 16.9 Mbps
Width : 1 024 pixels
Height : 426 pixels
Display aspect ratio : 2.40:1
Frame rate mode : Constant
Frame rate : 23.976 fps
Color space : YUV
Chroma subsampling : 4:2:0
Bit depth : 8 bits
Scan type : Progressive
Bits/(Pixel*Frame) : 0.280
Stream size : 2.40 GiB (91%)
Title : The Pursuit of Happyness _2006_
Language : English
Encoded date : UTC 2014-04-30 20:17:16
Tagged date : UTC 2014-04-30 20:17:29
Matrix coefficients : BT.709

Audio #1
ID : 2
Format : AAC
Format/Info : Advanced Audio Codec
Format profile : LC
Codec ID : 40
Duration : 1h 57mn
Bit rate mode : Variable
Bit rate : 132 Kbps
Maximum bit rate : 176 Kbps
Channel(s) : 2 channels
Channel positions : Front: L R
Sampling rate : 48.0 KHz
Compression mode : Lossy
Stream size : 112 MiB (4%)
Title : Original
Language : English
Encoded date : UTC 2014-04-30 20:10:49
Tagged date : UTC 2014-04-30 20:17:29

Audio #2
ID : 3
Format : AAC
Format/Info : Advanced Audio Codec
Format profile : LC
Codec ID : 40
Duration : 1h 57mn
Bit rate mode : Variable
Bit rate : 138 Kbps
Maximum bit rate : 172 Kbps
Channel(s) : 2 channels
Channel positions : Front: L R
Sampling rate : 48.0 KHz
Compression mode : Lossy
Stream size : 116 MiB (4%)
Title : Dub
Language : Russian
Encoded date : UTC 2014-04-30 20:15:11
Tagged date : UTC 2014-04-30 20:17:29


Sort Name: The Pursuit of Happyness
XID: Apple:vendor_id:2006-104938
Content ID: 280708827
Copyright: Y 2006 Columbia Pictures Industries, Inc. and GH One LLC. All Rights Reserved.
ScreenWriters: Стив Конрад
Producers: Тодд Блэк, Джейсон Блюменталь, Джеймс Ласситер
Director: Габриэле Муччино
Cast: Уилл Смит, Джейден Смит, Тэнди Ньютон, Брайан Хау, Джеймс Карен, Дэн Кастелланета, Курт Фуллер, Такайо Фишер, Кевин Уэст, Джордж Чунг // Will Smith (Chris Gardner), Thandie Newton (Linda), Brian Howe (Jay Twistle), James Karen (Martin Frohm), Jaden Smith (Christopher)
Rating: PG-13
Long Deion: Крис Гарднер отец одиночка. Воспитывая пятилетнего сына, Крис изо всех сил старается сделать так, чтобы ребенок рос счастливым. Работая продавцом, он не может оплатить квартиру, и их выселяют.Оказавшись на улице, но не желая сдаваться, отец устраивается специалистом в брокерскую компанию. Только и там его доходы далеки от нормальных. Но Крис поклялся себе во чтобы то ни стало вырастить сына, и никакие трудности его не остановят.
Deion: Крис Гарднер отец одиночка. Воспитывая пятилетнего сына, Крис изо всех сил старается сделать так, чтобы ребенок рос счастливым. Работая продавцом, он не может оплатить квартиру, и их выселяют.
Release Date: 2006-12-15T08:00:00Z
Genre: Drama
Artist: Gabriele Muccino
Name: В погоне за счастьем
Comments: «Никому не позволяй говорить, будто ты чего-то не можешь... У тебя есть мечта - защищай её»

x264 [info]: frame I:980 Avg QP:16.50 size: 64933
x264 [info]: frame P:42935 Avg QP:19.21 size: 26762
x264 [info]: frame B:125045 Avg QP:21.46 size: 10934
x264 [info]: consecutive B-frames: 3.5% 5.0% 12.3% 28.8% 18.3% 24.6% 3.4% 1.3% 0.7% 0.8% 0.3% 0.1% 0.2% 0.5% 0.1%
x264 [info]: mb I I16..4: 8.1% 59.9% 32.0%
x264 [info]: mb P I16..4: 0.9% 11.2% 3.0% P16..4: 31.0% 36.7% 11.9% 2.8% 0.3% skip: 2.2%
x264 [info]: mb B I16..4: 0.0% 1.9% 0.3% B16..8: 37.0% 22.1% 3.9% direct: 6.5% skip:28.3% L0:38.9% L1:44.3% BI:16.8%
x264 [info]: 8x8 transform intra:75.1% inter:48.3%
x264 [info]: coded y,uvDC,uvAC intra: 93.3% 78.6% 54.4% inter: 29.0% 15.8% 5.9%
x264 [info]: i16 v,h,dc,p: 11% 14% 3% 72%
x264 [info]: i8 v,h,dc,ddl,ddr,vr,hd,vl,hu: 10% 8% 8% 10% 13% 13% 13% 12% 12%
x264 [info]: i4 v,h,dc,ddl,ddr,vr,hd,vl,hu: 12% 9% 3% 9% 15% 14% 13% 12% 12%
x264 [info]: i8c dc,h,v,p: 35% 25% 20% 20%
x264 [info]: Weighted P-Frames: Y:3.2% UV:1.7%
x264 [info]: ref P L0: 58.0% 11.6% 12.1% 5.2% 3.6% 2.8% 2.2% 1.3% 1.1% 0.9% 0.9% 0.1% 0.0%
x264 [info]: ref B L0: 84.5% 6.2% 3.4% 1.6% 1.2% 1.0% 0.8% 0.5% 0.4% 0.3%
x264 [info]: ref B L1: 95.2% 4.8%
x264 [info]: kb/s:2928.78



Скачать В.погоне.за.счастьем.The.Pursuit.of.Happyness.(Габриэле.Муччино).[2006.драма.биография.BDRip-AVC].[Dub].torrent без регистрации
Золото ЗОЛОТАЯ РАЗДАЧА! СКАЧАННОЕ НЕ ЗАСЧИТЫВАЕТСЯ! Золото
Дата: Зарегистрирован   [ Тип: внутренний ] Как тут cкачать?
MAGNET ссылка
MAGNET ссылка


Скачать .torrent

14 KB

Статус: проверено DHT
Скачан: торрент - 174 раз, раздача полностью - 96 раз
Размер: 2,64 GB
Оценка:  - (Голосов: 0)
Поблагодарили: 2
Поделиться ссылкой на эту раздачу с друзьями:
В контактеFacebookОдноклассникиTwitterLivejournalМой МирLiveinternet
 

 
Показать сообщения:    


Вы не можете начинать темы
Вы не можете отвечать на сообщения
Вы не можете редактировать свои сообщения
Вы не можете удалять свои сообщения
Вы не можете голосовать в опросах
Вы не можете прикреплять файлы к сообщениям
Вы можете скачивать файлы