Loading...
Error

Скачать У зеркала два лица / The Mirror Has Two Faces (Барбра Стрейзанд) [1996, комедия, мелодрама, DVDRip-AVC] [MVO]+[Dub]+[Sub] торрент без регистрации

 
Статистика раздачи
Размер:  2,79 GB   |    Скачан:  123 раза
Сидов:  1  [  0 KB/s  ]  
 
Автор Сообщение

Marsianka

[] 

Информация о фильме
Название: У зеркала два лица
Оригинальное название: The Mirror Has Two Faces
Год выхода: 1996
Жанр: комедия, мелодрама
Режиссер: Барбра Стрейзанд
В ролях: Барбра Стрейзанд, Джефф Бриджес, Лорен Бэколл, Джордж Сигал, Мими Роджерс, Пирс Броснан

О фильме:
Грегори Ларкин - скучный преподаватель математики в Колумбийском университете. Отношения с противоположным полом у него никогда особенно не складывались, и знакомство со скромной коллегой, литераторшей Роуз Морган, вскоре перерастает в брак. Неудовлетворенная личной жизнью женщина идет на эксперимент: когда муж уезжает читать курс лекций, Роуз активно начинает заниматься собой, превращаясь из замухрышки в эффектную красавицу...



Страна: США
Студия: TriStar Pictures, Phoenix Pictures, Barwood Films
Продолжительность: 02:01:21.000
Перевод: Профессиональный (многоголосый закадровый) НТВ+ и R5
Дубляж R5

Файл
Кодек: h.264
Качество: DVDRip-AVC
Видео: 688x560 (1.739) @ 974x560 (анаморф), 25.000 fps, AVC, ~2132 Kbps, 0.221 bits/pixel
Русский, 48.0 KHz, AC3, 2 ch, 192 Kbps НТВ+
Русский, 48.0 KHz, AC3, 2 ch, 192 Kbps R5
Русский, 48.0 KHz, AC3, 6 ch, 384 Kbps R5 Дубляж
Английский, 48.0 KHz, AC3, 6 ch, 384 Kbps
Субтитры:
Английские, VobSub
Русские, VobSub
Общее
Уникальный идентификатор : 219617052418903669120674323908362670129 (0xA538B4AC5ECF20109F187F5793829031)
Полное имя : I:FilmsU_zerkala_2_litsa.1996.DVDRip-AVC.mkv
Формат : Matroska
Версия формата : Version 4 / Version 2
Размер файла : 2,79 Гбайт
Продолжительность : 2 ч. 1 м.
Общий поток : 3291 Кбит/сек
Дата кодирования : UTC 2014-05-03 21:13:17
Программа кодирования : mkvmerge v6.9.1 ('Blue Panther') 64bit built on Apr 18 2014 18:23:38
Библиотека кодирования : libebml v1.3.0 + libmatroska v1.4.1

Видео
Идентификатор : 1
Формат : AVC
Формат/Информация : Advanced Video Codec
Профиль формата : High@L4.1
Параметр CABAC формата : Да
Параметр ReFrames формата : 16 кадров
Идентификатор кодека : V_MPEG4/ISO/AVC
Продолжительность : 2 ч. 1 м.
Битрейт : 2132 Кбит/сек
Ширина : 688 пикселей
Высота : 560 пикселей
Соотношение сторон : 1,739
Соотношение сторон в оригинале : 16:9
Режим частоты кадров : Постоянный
Частота кадров : 25,000 кадров/сек
Цветовое пространство : YUV
Субдискретизация насыщенности : 4:2:0
Битовая глубина : 8 бит
Тип развёртки : Прогрессивная
Бит/(Пиксели*Кадры) : 0.221
Размер потока : 1,76 Гбайт (63%)
Библиотека кодирования : x264 core 138 r2358 9e941d1
Настройки программы : cabac=1 / ref=16 / deblock=1:0:0 / analyse=0x3:0x133 / me=umh / subme=10 / psy=1 / psy_rd=1.10:0.10 / mixed_ref=1 / me_range=32 / chroma_me=1 / trellis=2 / 8x8dct=1 / cqm=0 / deadzone=21,11 / fast_pskip=0 / chroma_qp_offset=-3 / threads=8 / lookahead_threads=2 / sliced_threads=0 / nr=0 / decimate=0 / interlaced=0 / bluray_compat=0 / constrained_intra=0 / bframes=13 / b_pyramid=2 / b_adapt=2 / b_bias=0 / direct=3 / weightb=1 / open_gop=0 / weightp=2 / keyint=250 / keyint_min=25 / scenecut=60 / intra_refresh=0 / rc_lookahead=60 / rc=2pass / mbtree=0 / bitrate=2132 / ratetol=1.0 / qcomp=0.60 / qpmin=0 / qpmax=69 / qpstep=4 / cplxblur=20.0 / qblur=0.5 / vbv_maxrate=50000 / vbv_bufsize=62500 / nal_hrd=none / ip_ratio=1.40 / pb_ratio=1.30 / aq=2:1.00
Default : Нет
Forced : Нет
Коэффициенты матрицы : BT.601

Аудио #1
Идентификатор : 2
Формат : AC-3
Формат/Информация : Audio Coding 3
Расширение режима : CM (complete main)
Параметр Endianness формата : Big
Идентификатор кодека : A_AC3
Продолжительность : 2 ч. 1 м.
Вид битрейта : Постоянный
Битрейт : 192 Кбит/сек
Каналы : 2 канала
Расположение каналов : Front: L R
Частота : 48,0 КГц
Битовая глубина : 16 бит
Метод сжатия : С потерями
Размер потока : 167 Мбайт (6%)
Заголовок : NTV+ 2.0
Язык : Russian
Default : Да
Forced : Нет

Аудио #2
Идентификатор : 3
Формат : AC-3
Формат/Информация : Audio Coding 3
Профиль формата : Dolby Digital
Расширение режима : CM (complete main)
Параметр Endianness формата : Big
Идентификатор кодека : A_AC3
Продолжительность : 2 ч. 1 м.
Вид битрейта : Постоянный
Битрейт : 192 Кбит/сек
Каналы : 2 канала
Расположение каналов : Front: L R
Частота : 48,0 КГц
Битовая глубина : 16 бит
Метод сжатия : С потерями
Размер потока : 167 Мбайт (6%)
Заголовок : R5 2.0
Язык : Russian
Default : Нет
Forced : Нет

Аудио #3
Идентификатор : 4
Формат : AC-3
Формат/Информация : Audio Coding 3
Расширение режима : CM (complete main)
Параметр Endianness формата : Big
Идентификатор кодека : A_AC3
Продолжительность : 2 ч. 1 м.
Вид битрейта : Постоянный
Битрейт : 384 Кбит/сек
Каналы : 6 каналов
Расположение каналов : Front: L C R, Side: L R, LFE
Частота : 48,0 КГц
Битовая глубина : 16 бит
Метод сжатия : С потерями
Размер потока : 333 Мбайт (12%)
Заголовок : R5 5.1
Язык : Russian
Default : Нет
Forced : Нет

Аудио #4
Идентификатор : 5
Формат : AC-3
Формат/Информация : Audio Coding 3
Расширение режима : CM (complete main)
Параметр Endianness формата : Big
Идентификатор кодека : A_AC3
Продолжительность : 2 ч. 1 м.
Вид битрейта : Постоянный
Битрейт : 384 Кбит/сек
Каналы : 6 каналов
Расположение каналов : Front: L C R, Side: L R, LFE
Частота : 48,0 КГц
Битовая глубина : 16 бит
Метод сжатия : С потерями
Размер потока : 333 Мбайт (12%)
Заголовок : Original 5.1
Язык : English
Default : Нет
Forced : Нет

Текст #1
Идентификатор : 6
Формат : VobSub
Режим смешивания : zlib
Идентификатор кодека : S_VOBSUB
Идентификатор кодека/Информация : The same subtitle format used on DVDs
Язык : English
Default : Нет
Forced : Нет

Текст #2
Идентификатор : 7
Формат : VobSub
Режим смешивания : zlib
Идентификатор кодека : S_VOBSUB
Идентификатор кодека/Информация : The same subtitle format used on DVDs
Язык : Russian
Default : Нет
Forced : Нет

Меню
00:00:00.000 : en:Chapter 01
00:05:07.800 : en:Chapter 02
00:09:19.000 : en:Chapter 03
00:11:49.240 : en:Chapter 04
00:16:28.720 : en:Chapter 05
00:17:09.200 : en:Chapter 06
00:18:18.840 : en:Chapter 07
00:22:51.000 : en:Chapter 08
00:25:27.440 : en:Chapter 09
00:30:48.080 : en:Chapter 10
00:33:22.640 : en:Chapter 11
00:35:11.040 : en:Chapter 12
00:38:59.480 : en:Chapter 13
00:43:36.160 : en:Chapter 14
00:48:28.840 : en:Chapter 15
00:52:48.040 : en:Chapter 16
00:58:14.000 : en:Chapter 17
00:59:27.600 : en:Chapter 18
01:14:57.160 : en:Chapter 19
01:23:08.000 : en:Chapter 20
01:26:18.240 : en:Chapter 21
01:31:06.960 : en:Chapter 22
01:33:32.680 : en:Chapter 23
01:39:59.880 : en:Chapter 24
01:43:41.520 : en:Chapter 25
01:45:41.040 : en:Chapter 26
01:52:00.160 : en:Chapter 27
01:57:39.000 : en:Chapter 28
Исходник R5 DVD9 + синхр. дорожка с переводом НТВ+



Скачать У.зеркала.два.лица.The.Mirror.Has.Two.Faces.(Барбра.Стрейзанд).[1996.комедия.мелодрама.DVDRip-AVC].[MVO]+[Dub]+[Sub].torrent без регистрации
Золото ЗОЛОТАЯ РАЗДАЧА! СКАЧАННОЕ НЕ ЗАСЧИТЫВАЕТСЯ! Золото
Дата: Зарегистрирован   [ Тип: внутренний ] Как тут cкачать?
MAGNET ссылка
MAGNET ссылка


Скачать .torrent

15 KB

Статус: проверено DHT
Скачан: торрент - 123 раз, раздача полностью - 16 раз
Размер: 2,79 GB
Оценка:  - (Голосов: 0)
Поблагодарили: 2
Поделиться ссылкой на эту раздачу с друзьями:
В контактеFacebookОдноклассникиTwitterLivejournalМой МирLiveinternet
 

 
Показать сообщения:    


Вы не можете начинать темы
Вы не можете отвечать на сообщения
Вы не можете редактировать свои сообщения
Вы не можете удалять свои сообщения
Вы не можете голосовать в опросах
Вы не можете прикреплять файлы к сообщениям
Вы можете скачивать файлы