Loading...
Error

Скачать Лучше не бывает / As Good as It Gets (Джеймс Л. Брукс) [1997, драма, мелодрама, комедия, HDRip-AVC] [MVO] (Видеосервис) + 2x[AVO] (А.Гаврилов, Ю.Живов) торрент без регистрации

 
Статистика раздачи
Размер:  2,37 GB   |    Скачан:  123 раза
Сидов:  1  [  0 KB/s  ]  
 
Автор Сообщение

leon030982

[] 

Лучше не бывает / As Good as It Gets



Год выхода: 1997
Жанр: драма, мелодрама, комедия
Страна: США
Продолжительность: 02:18:38
Перевод #1: Профессиональный (многоголосый, закадровый)[Видеосервис]
Перевод #2: Авторский (одноголосый)[А.Гаврилов]
Перевод #3: Авторский (одноголосый)[Ю.Живов]
Субтитры: Русские, Английские (отключаемые)

Режиссер: Джеймс Л. Брукс

В ролях: Джек Николсон, Хелен Хант, Грег Киннер, Кьюба Гудинг мл., Скит Ульрих, Ширли Найт, Ярдли Смит, Люпе Онтиверос, собака Джилл, собака Таймер

О фильме: Мелвин Адал, психически неуравновешенный эксцентричный писатель, ненавидит буквально всех вокруг. Из-за своего странного поведения он одинок и часто попадает в комичные ситуации. Но неожиданно его уединение нарушается.
Мелвину приходится ухаживать за соседской собакой, и незаметно для себя он учится у нее доброте и преданности. За стеной собственного равнодушия ему открывается прекрасный мир человеческих чувств



Качество: HDRip-AVC
Формат: MKV
Видео кодек: х.264
Аудио кодек: AC3
Видео: 976х528 (1,85:1), 23.976 fps, 1869 kbps, 0.151 bit/pixel
Аудио #1: 48 kHz, AC3 Dolby Digital, 2 ch, ~192.00 kbps[Видеосервис]
Аудио #2: 48 kHz, AC3 Dolby Digital, 2 ch, ~192.00 kbps[Гаврилов]
Аудио #3: 48 kHz, AC3 Dolby Digital, 2 ch, ~192.00 kbps[Живов]
Видеоряд от Rulya74 --- Спасибо!
Звуковые дорожки взяты из релиза Enclave76
General
Unique ID : 216827271056193871487352245678766511604 (0xA31F69D526DFD0878F48EFD0DF2755F4)
Complete name : E:\INTERNET\As Good as It Gets.1997.HDRip-AVC.[MVO](VIDEOSERVIS)+2X[AVO]+Sub.mkv
Format : Matroska
File size : 2.37 GiB
Duration : 2h 18mn
Overall bit rate : 2 443 Kbps
Movie name : Ëó÷øå íå áûâàåò / As Good As It Gets (1997) HDRip-AVC
Encoded date : UTC 2014-05-05 09:27:43
Writing application : mkvmerge v6.1.0 ('Old Devil') built on Mar 4 2013 09:10:42
Writing library : libebml v1.3.0 + libmatroska v1.4.0

Video
ID : 1
Format : AVC
Format/Info : Advanced Video Codec
Format profile : High@L4.1
Format settings, CABAC : Yes
Format settings, ReFrames : 12 frames
Codec ID : V_MPEG4/ISO/AVC
Duration : 2h 18mn
Bit rate : 1 869 Kbps
Width : 976 pixels
Height : 528 pixels
Display aspect ratio : 16:9
Frame rate : 23.976 fps
Color space : YUV
Chroma subsampling : 4:2:0
Bit depth : 8 bits
Scan type : Progressive
Bits/(Pixel*Frame) : 0.151
Stream size : 1.76 GiB (74%)
Writing library : x264 core 133 r2334 a3ac64b
Encoding settings : cabac=1 / ref=12 / deblock=1:-1:-1 / analyse=0x3:0x113 / me=umh / subme=11 / psy=1 / psy_rd=1.40:0.70 / mixed_ref=1 / me_range=48 / chroma_me=1 / trellis=2 / 8x8dct=1 / cqm=0 / deadzone=21,11 / fast_pskip=0 / chroma_qp_offset=-4 / threads=4 / lookahead_threads=1 / sliced_threads=0 / nr=0 / decimate=1 / interlaced=0 / bluray_compat=0 / constrained_intra=0 / bframes=9 / b_pyramid=2 / b_adapt=1 / b_bias=0 / direct=3 / weightb=1 / open_gop=0 / weightp=2 / keyint=240 / keyint_min=22 / scenecut=40 / intra_refresh=0 / rc_lookahead=40 / rc=2pass / mbtree=1 / bitrate=1869 / ratetol=1.0 / qcomp=0.60 / qpmin=10 / qpmax=69 / qpstep=4 / cplxblur=20.0 / qblur=0.5 / vbv_maxrate=62500 / vbv_bufsize=78125 / nal_hrd=none / ip_ratio=1.40 / aq=1:1.00

Audio #1
ID : 2
Format : AC-3
Format/Info : Audio Coding 3
Mode extension : CM (complete main)
Codec ID : A_AC3
Duration : 2h 18mn
Bit rate mode : Constant
Bit rate : 192 Kbps
Channel(s) : 2 channels
Channel positions : Front: L R
Sampling rate : 48.0 KHz
Bit depth : 16 bits
Compression mode : Lossy
Stream size : 190 MiB (8%)
Title : MVO_VIDEOSERVIS
Language : Russian

Audio #2
ID : 3
Format : AC-3
Format/Info : Audio Coding 3
Mode extension : CM (complete main)
Codec ID : A_AC3
Duration : 2h 18mn
Bit rate mode : Constant
Bit rate : 192 Kbps
Channel(s) : 2 channels
Channel positions : Front: L R
Sampling rate : 48.0 KHz
Bit depth : 16 bits
Compression mode : Lossy
Stream size : 190 MiB (8%)
Title : AVO_GAVRILOV
Language : Russian

Audio #3
ID : 4
Format : AC-3
Format/Info : Audio Coding 3
Mode extension : CM (complete main)
Codec ID : A_AC3
Duration : 2h 18mn
Bit rate mode : Constant
Bit rate : 192 Kbps
Channel(s) : 2 channels
Channel positions : Front: L R
Sampling rate : 48.0 KHz
Bit depth : 16 bits
Compression mode : Lossy
Stream size : 190 MiB (8%)
Title : AVO_JYVOV
Language : Russian

Text #1
ID : 5
Format : UTF-8
Codec ID : S_TEXT/UTF8
Codec ID/Info : UTF-8 Plain Text
Language : Russian

Text #2
ID : 6
Format : UTF-8
Codec ID : S_TEXT/UTF8
Codec ID/Info : UTF-8 Plain Text
Language : English



Скачать Лучше.не.бывает.As.Good.as.It.Gets.(Джеймс.Л.Брукс).[1997.драма.мелодрама.комедия.HDRip-AVC].[MVO].(Видеосервис).+.2x[AVO].(А.Гаврилов.Ю.Живов).torrent без регистрации
Золото ЗОЛОТАЯ РАЗДАЧА! СКАЧАННОЕ НЕ ЗАСЧИТЫВАЕТСЯ! Золото
Дата: Зарегистрирован   [ Тип: внутренний ] Как тут cкачать?
MAGNET ссылка
MAGNET ссылка


Скачать .torrent

12 KB

Статус: проверено DHT
Скачан: торрент - 123 раз, раздача полностью - 6 раз
Размер: 2,37 GB
Оценка:  - (Голосов: 0)
Поблагодарили: 1
Поделиться ссылкой на эту раздачу с друзьями:
В контактеFacebookОдноклассникиTwitterLivejournalМой МирLiveinternet
 

 
Показать сообщения:    


Вы не можете начинать темы
Вы не можете отвечать на сообщения
Вы не можете редактировать свои сообщения
Вы не можете удалять свои сообщения
Вы не можете голосовать в опросах
Вы не можете прикреплять файлы к сообщениям
Вы можете скачивать файлы