Loading...
Error

Скачать Меч варваров / Sangraal, la spada di fuoco (Мишель Массимо Тарантини) [1982, фэнтези, боевик, приключения, DVDRip] [DVO (студия Марафон)] торрент без регистрации

 
Статистика раздачи
Размер:  1,36 GB   |    Скачан:  103 раза
Сидов:  1  [  0 KB/s  ]  
 
Автор Сообщение

Marsianka

[] 

Меч варваров / Sangraal, la spada di fuoco
Страна: Италия
Жанр: фэнтези, боевик, приключения
Год выпуска: 1982
Продолжительность: 01:25:05
Перевод: Профессиональный (двухголосый закадровый) студия Марафон
Cубтитры: нет
Режиссер: Мишель Массимо Тарантини / Michele Massimo Tarantini
В ролях: Пьетро Торризи, Ивонна Фраскетти, Марио Новелли, Сиомара Родригез, Маргарета Рэнс, Харукико Яманоути, Алекс Партексано, Массимо Питтарелло, Лучано Росси, Сабрина Сиани
Описание: Его народ унижен, его родители зверски убиты, его любимая женщина мертва! Но в его груди бьется неукротимое сердце варвара, и ему неведомы сомнения и страх смерти. Потому что, он — Сангрил, беспощадный и непобедимый воин, чей меч быстр и несокрушим и чей дух не сломить зловещим богиням и темным духам! Взявшие меч от меча и погибнут. Его путь полон невероятных приключений, отчаянных поединков, неожиданных встреч и опасностей. Сангрил с достоинством проходит все испытания, но сможет ли он победить в последней и самой опасной битве его жизни, битве с непобедимым и зловещим Нантуком?




Качество видео: DVDRip
Формат видео: AVI
Видео: 704x352 (2.00:1), 25 fps, XviD buid 47 ~2092 kbps avg, 0.34 bit/pixel
Аудио: 48 kHz, MPEG Layer 3, 2 ch, ~192.00 kbps avg
Альтернативная раздача в формате MKV от Lentyai80 MediaInfo

Сэмпл
Format : AVI
Format/Info : Audio Video Interleave
File size : 1.36 GiB
Duration : 1h 25mn
Overall bit rate : 2 294 Kbps
Video
ID : 0
Format : MPEG-4 Visual
Format profile : Advanced Simple@L5
Format settings, BVOP : 1
Format settings, QPel : No
Format settings, GMC : No warppoints
Format settings, Matrix : Default (MPEG)
Codec ID : XVID
Codec ID/Hint : XviD
Duration : 1h 25mn
Bit rate : 2 092 Kbps
Width : 704 pixels
Height : 352 pixels
Display aspect ratio : 2.000
Frame rate : 25.000 fps
Color space : YUV
Chroma subsampling : 4:2:0
Bit depth : 8 bits
Scan type : Progressive
Compression mode : Lossy
Bits/(Pixel*Frame) : 0.338
Stream size : 1.24 GiB (91%)
Writing library : XviD 1.2.0.dev47 (UTC 2006-11-01)
Audio
ID : 1
Format : MPEG Audio
Format version : Version 1
Format profile : Layer 3
Mode : Joint stereo
Codec ID : 55
Codec ID/Hint : MP3
Duration : 1h 25mn
Bit rate mode : Constant
Bit rate : 192 Kbps
Channel(s) : 2 channels
Sampling rate : 48.0 KHz
Compression mode : Lossy
Stream size : 117 MiB (8%)
Alignment : Aligned on interleaves
Interleave, duration : 40 ms (1.00 video frame)
Interleave, preload duration : 504 ms
Writing library : LAME3.97
Encoding settings : -m j -V 4 -q 2 -lowpass 18.6 -b 192



Скачать Меч.варваров.Sangraal.la.spada.di.fuoco.(Мишель.Массимо.Тарантини).[1982.фэнтези.боевик.приключения.DVDRip].[DVO.(студия.Марафон)].torrent без регистрации
Золото ЗОЛОТАЯ РАЗДАЧА! СКАЧАННОЕ НЕ ЗАСЧИТЫВАЕТСЯ! Золото
Дата: Зарегистрирован   [ Тип: внутренний ] Как тут cкачать?
MAGNET ссылка
MAGNET ссылка


Скачать .torrent

14 KB

Статус: проверено DHT
Скачан: торрент - 103 раз, раздача полностью - 17 раз
Размер: 1,36 GB
Оценка:  - (Голосов: 0)
Поблагодарили: 0
Поделиться ссылкой на эту раздачу с друзьями:
В контактеFacebookОдноклассникиTwitterLivejournalМой МирLiveinternet
 

 
Показать сообщения:    


Вы не можете начинать темы
Вы не можете отвечать на сообщения
Вы не можете редактировать свои сообщения
Вы не можете удалять свои сообщения
Вы не можете голосовать в опросах
Вы не можете прикреплять файлы к сообщениям
Вы можете скачивать файлы