Loading...
Error

Скачать Жизнь этого парня / This Boy's Life (Майкл Кейтон-Джонс) [1993, биографическая драма, триллер, экранизация, HDRip-AVC] [MVO]x2+[Sub]x2 торрент без регистрации

 
Статистика раздачи
Размер:  1,93 GB   |    Скачан:  92 раза
Сидов:  1  [  0 KB/s  ]  
 
Автор Сообщение

Marsianka

[] 

Жизнь этого парня / This Boy's Life (1993) HDRip-AVC | iPad | P
«Он похож на идеального мужа. Он похож на идеального отца. Но с его приходом их жизнь превратилась в ад...»


Название: Жизнь этого парня
Оригинальное название: This Boy's Life
Год выхода: 1993
Жанр: биографическая драма, триллер, экранизация
Режиссер: Майкл Кейтон-Джонс
В ролях: Роберт Де Ниро, Леонардо ДиКаприо, Эллен Баркин, Йон Блечман, Элиза Душку, Крис Купер, Карла Гуджино, Захари Энсли, Трэйси Эллис, Кэти Кинни, Роберт Замеровски, Тоби Магвайр, Тристан Тейт, Трэвис МакДональд, Майкл Бэколл, Адам Снеллер, Геррит Грэм, Томас Копаче, Ли Уилкоф, Шон Мюррей, Джейсон Хорст, Ричард Лисс, Дианна Миллиган, Морган Брэйтон, Роберт Муннс, Билл Доу, Шоун МакДональд, Фрэнк С. Тернер, Джон Р. Тэйлор, Кен Кэмрокс

О фильме:
Муж Кэролайн разводится с ней и женится на богатой женщине. Забрав старшего сына, он уезжает и больше не интересуется проблемами бывшей семьи. Безработная Кэролин берет младшего сына Тоби и отправляется в бесцельную поездку по Америке. Они останавливаются в нескольких городах, где Кэролин старается устроить их жизнь.
И однажды судьба сводит ее с Дуайтом, приятным и вежливым человеком. Кэролин, в надежде на то, что он принесет стабильность в их жизнь и поможет поднять Тоби, выходит за него замуж. Но вопреки ее ожиданиям, в дом входит суровый и вспыльчивый человек. При новом "отце семейства", деспоте и тиране, их жизнь превращается в сплошной кошмар.



Страна: США
Студия: Warner Bros. Pictures

Продолжительность: 01:54:42
Перевод: Русский профессиональный многоголосый закадровый

Файл
Кодек: H.264
Качество: HDRip [576p]
Видео: 1024x426 (2.40:1) at 23.976 fps, AVC at 2000 kbps
1: АAС 2.0 148 kbps - Русский профессиональный многоголосый закадровый (НТВ)
2: АAС 2.0 132 kbps - Русский профессиональный многоголосый закадровый (VHS)
3: АAС 2.0 148 kbps - Английский
Субтитры: Русский, Английский

General
Complete name : C:CREATE264mod1outThis.Boys.Life.1993.576p.P.m4v
Format : MPEG-4
Codec ID : M4V
File size : 1.93 GiB
Duration : 1h 54mn
Overall bit rate mode : Variable
Overall bit rate : 2 412 Kbps
Movie name : Жизнь этого парня
Performer : Michael Caton-Jones
Genre : Drama
ContentType : Short Film
Deion : Муж Кэролайн разводится с ней и женится на богатой женщине. Забрав старшего сына, он уезжает и больше не интересуется проблемами бывшей семьи. Безработная Кэролин берет младшего сына Тоби и отправляется в бесцельную поездку по Америке.
Recorded date : UTC 1993-04-09 07:00:00
Encoded date : UTC 2014-05-04 10:19:28
Tagged date : UTC 2014-05-04 10:23:58
Copyright : Warner Bros. Pictures
Cover : Yes
Comment : «Он похож на идеального мужа. Он похож на идеального отца. Но с его приходом их жизнь превратилась в ад...»
ContentRating : mpaa|R|400|
iTunMOVI : /
Title/Sort : This Boy's Life
LongDeion : Муж Кэролайн разводится с ней и женится на богатой женщине. Забрав старшего сына, он уезжает и больше не интересуется проблемами бывшей семьи. Безработная Кэролин берет младшего сына Тоби и отправляется в бесцельную поездку по Америке. Они останавливаются в нескольких городах, где Кэролин старается устроить их жизнь. И однажды судьба сводит ее с Дуайтом, приятным и вежливым человеком. Кэролин, в надежде на то, что он принесет стабильность в их жизнь и поможет поднять Тоби, выходит за него замуж. Но вопреки ее ожиданиям, в дом входит суровый и вспыльчивый человек. При новом «отце семейства», деспоте и тиране, их жизнь превращается в сплошной кошмар.
AppleStoreCatalogID : 402395807
Vendor : Apple:vendor_id:1993-6875

Video
ID : 1
Format : AVC
Format/Info : Advanced Video Codec
Format profile : High@L4.1
Format settings, CABAC : Yes
Format settings, ReFrames : 10 frames
Codec ID : avc1
Codec ID/Info : Advanced Video Coding
Duration : 1h 54mn
Bit rate : 1 968 Kbps
Maximum bit rate : 6 752 Kbps
Width : 1 024 pixels
Height : 426 pixels
Display aspect ratio : 2.40:1
Frame rate mode : Constant
Frame rate : 23.976 fps
Color space : YUV
Chroma subsampling : 4:2:0
Bit depth : 8 bits
Scan type : Progressive
Bits/(Pixel*Frame) : 0.188
Stream size : 1.58 GiB (82%)
Title : This Boys Life _1993_
Language : English
Encoded date : UTC 2014-05-04 10:19:28
Tagged date : UTC 2014-05-04 10:19:48
Matrix coefficients : BT.709

Audio #1
ID : 2
Format : AAC
Format/Info : Advanced Audio Codec
Format profile : LC
Codec ID : 40
Duration : 1h 54mn
Bit rate mode : Variable
Bit rate : 147 Kbps
Maximum bit rate : 172 Kbps
Channel(s) : 2 channels
Channel positions : Front: L R
Sampling rate : 48.0 KHz
Compression mode : Lossy
Stream size : 121 MiB (6%)
Title : HTB
Language : Russian
Encoded date : UTC 2014-05-04 10:09:02
Tagged date : UTC 2014-05-04 10:19:48

Audio #2
ID : 3
Format : AAC
Format/Info : Advanced Audio Codec
Format profile : LC
Codec ID : 40
Duration : 1h 54mn
Bit rate mode : Variable
Bit rate : 132 Kbps
Maximum bit rate : 167 Kbps
Channel(s) : 2 channels
Channel positions : Front: L R
Sampling rate : 48.0 KHz
Compression mode : Lossy
Stream size : 107 MiB (5%)
Title : VHS
Language : Russian
Encoded date : UTC 2014-05-04 10:13:37
Tagged date : UTC 2014-05-04 10:19:48

Audio #3
ID : 4
Format : AAC
Format/Info : Advanced Audio Codec
Format profile : LC
Codec ID : 40
Duration : 1h 54mn
Bit rate mode : Variable
Bit rate : 149 Kbps
Maximum bit rate : 183 Kbps
Channel(s) : 2 channels
Channel positions : Front: L R
Sampling rate : 48.0 KHz
Compression mode : Lossy
Stream size : 122 MiB (6%)
Language : English
Encoded date : UTC 2014-05-04 10:16:26
Tagged date : UTC 2014-05-04 10:19:48

Text #1
ID : 5
Format : Timed Text
Muxing mode : sbtl
Codec ID : tx3g
Duration : 1h 51mn
Bit rate mode : Variable
Bit rate : 107 bps
Stream size : 86.9 KiB (0%)
Title : Subtitle Russian
Language : Russian
Encoded date : UTC 2014-05-04 10:19:48
Tagged date : UTC 2014-05-04 10:19:48

Text #2
ID : 6
Format : Timed Text
Muxing mode : sbtl
Codec ID : tx3g
Duration : 1h 50mn
Bit rate mode : Variable
Bit rate : 63 bps
Stream size : 51.0 KiB (0%)
Title : Subtitle English
Language : English
Encoded date : UTC 2014-05-04 10:19:48
Tagged date : UTC 2014-05-04 10:19:48

Menu
ID : 7
Codec ID : text
Duration : 1h 54mn
Encoded date : UTC 2014-05-04 10:20:26
Tagged date : UTC 2014-05-04 10:20:26
Bit rate mode : VBR

x264 [info]: frame I:1081 Avg QP:15.33 size: 60917
x264 [info]: frame P:34897 Avg QP:17.69 size: 21837
x264 [info]: frame B:129028 Avg QP:19.85 size: 6707
x264 [info]: consecutive B-frames: 1.8% 2.2% 8.2% 17.3% 18.3% 39.5% 6.0% 3.5% 2.0% 0.5% 0.2% 0.1% 0.1% 0.3% 0.0%
x264 [info]: mb I I16..4: 8.3% 71.8% 19.9%
x264 [info]: mb P I16..4: 0.6% 12.2% 1.5% P16..4: 29.2% 37.3% 14.3% 3.4% 0.4% skip: 1.2%
x264 [info]: mb B I16..4: 0.0% 1.3% 0.1% B16..8: 34.1% 22.3% 3.3% direct: 5.5% skip:33.4% L0:38.2% L1:43.3% BI:18.5%
x264 [info]: 8x8 transform intra:84.5% inter:45.5%
x264 [info]: coded y,uvDC,uvAC intra: 95.8% 73.1% 48.9% inter: 22.9% 15.2% 5.1%
x264 [info]: i16 v,h,dc,p: 8% 7% 14% 71%
x264 [info]: i8 v,h,dc,ddl,ddr,vr,hd,vl,hu: 12% 12% 8% 8% 12% 11% 11% 12% 14%
x264 [info]: i4 v,h,dc,ddl,ddr,vr,hd,vl,hu: 12% 9% 3% 9% 16% 15% 14% 11% 12%
x264 [info]: i8c dc,h,v,p: 29% 32% 21% 18%
x264 [info]: Weighted P-Frames: Y:6.0% UV:3.2%
x264 [info]: ref P L0: 56.6% 9.6% 13.8% 6.1% 4.2% 3.2% 2.5% 1.5% 1.3% 1.1% 0.1% 0.0%
x264 [info]: ref B L0: 84.6% 6.7% 3.4% 1.7% 1.2% 0.9% 0.8% 0.5% 0.3%
x264 [info]: ref B L1: 94.8% 5.2%
x264 [info]: kb/s:1968.24


Sort Name: This Boy's Life
XID: Apple:vendor_id:1993-6875
Content ID: 402395807
Copyright: Warner Bros. Pictures
ScreenWriters: Роберт Гетчелл, Тобиас Вулф
Producers: Арт Линсон, Фитч Кэди, Питер Губер
Director: Майкл Кейтон-Джонс
Cast: Роберт Де Ниро, Леонардо ДиКаприо, Эллен Баркин, Йон Блечман, Элиза Душку, Крис Купер, Карла Гуджино, Захари Энсли, Трэйси Эллис, Кэти Кинни, Роберт Замеровски, Тоби Магвайр, Тристан Тейт, Трэвис МакДональд, Майкл Бэколл, Адам Снеллер, Геррит Грэм, Т...
Rating: R
Long Deion: Муж Кэролайн разводится с ней и женится на богатой женщине. Забрав старшего сына, он уезжает и больше не интересуется проблемами бывшей семьи. Безработная Кэролин берет младшего сына Тоби и отправляется в бесцельную поездку по Америке. Они останавливаются в нескольких городах, где Кэролин старается устроить их жизнь. И однажды судьба сводит ее с Дуайтом, приятным и вежливым человеком. Кэролин, в надежде на то, что он принесет стабильность в их жизнь и поможет поднять Тоби, выходит за него замуж. Но вопреки ее ожиданиям, в дом входит суровый и вспыльчивый человек. При новом «отце семейства», деспоте и тиране, их жизнь превращается в сплошной кошмар.
Deion: Муж Кэролайн разводится с ней и женится на богатой женщине. Забрав старшего сына, он уезжает и больше не интересуется проблемами бывшей семьи. Безработная Кэролин берет младшего сына Тоби и отправляется в бесцельную поездку по Америке.
Release Date: 1993-04-09T07:00:00Z
Genre: Drama
Artist: Michael Caton-Jones
Name: Жизнь этого парня
Comments: «Он похож на идеального мужа. Он похож на идеального отца. Но с его приходом их жизнь превратилась в ад...»




Скачать Жизнь.этого.парня.This.Boy's.Life.(Майкл.Кейтон-Джонс).[1993.биографическая.драма.триллер.экранизация.HDRip-AVC].[MVO]x2+[Sub]x2.torrent без регистрации
Золото ЗОЛОТАЯ РАЗДАЧА! СКАЧАННОЕ НЕ ЗАСЧИТЫВАЕТСЯ! Золото
Дата: Зарегистрирован   [ Тип: внутренний ] Как тут cкачать?
MAGNET ссылка
MAGNET ссылка


Скачать .torrent

20 KB

Статус: проверено DHT
Скачан: торрент - 92 раз, раздача полностью - 2 раз
Размер: 1,93 GB
Оценка:  - (Голосов: 0)
Поблагодарили: 2
Поделиться ссылкой на эту раздачу с друзьями:
В контактеFacebookОдноклассникиTwitterLivejournalМой МирLiveinternet
 

 
Показать сообщения:    


Вы не можете начинать темы
Вы не можете отвечать на сообщения
Вы не можете редактировать свои сообщения
Вы не можете удалять свои сообщения
Вы не можете голосовать в опросах
Вы не можете прикреплять файлы к сообщениям
Вы можете скачивать файлы