Loading...
Error

Скачать Проклятая палата / Демоническая палата / Akuryo Byoto / Demon Ward (сезон 01) (Норио Цурута, Хаджиме Такезоно, Ейске Найто) [2013, ужасы, мистика, HDTV] [720p] [DVO(DeadSno & den904)] торрент без регистрации

 
Статистика раздачи
Размер:  5,75 GB   |    Скачан:  119 раз
Сидов:  1  [  0 KB/s  ]  
 
Автор Сообщение

sobmaster

[] 

Информация о фильме
Название: Проклятая палата / Демоническая палата
Оригинальное название: Akuryo Byoto / Demon Ward
Год выхода: 2013
Жанр: ужасы, мистика
Режиссер: Норио Цурута, Хаджиме Такезоно, Ейске Найто

В ролях: Кахо, Эрико Мориваки, Джуриа Каваками, Аки Кикуи, Ами Шимазаки, Сейко Ногучи, Мао Инами, Джуничи Харута, Кенске Овада, Чоей Такахаши, Лиззи, Казума Сузуки, Рихо Такада, Кюсаку Шимада

Релиз группы:

О фильме:
Потеряв мать, Руна начинает видеть призраков. Сделав ошибку и рассказав об этом, девушка переезжает в другой город и отныне хранит молчание. Возможно, ее ждала бы новая жизнь, вот только нынешнее место работы одержимо призраками. И когда в больнице Кумагава начинают происходить странные вещи, подозрение падает на новую медсестру. Теперь жизнь Руны в опасности. Сможет ли она спастись от странных жутких существ ?

Выпущено: Япония
Продолжительность: 10 x ~ 00:24:00
Озвучивание: Любительское (двухголосое) [DeadSno & den904]
перевод на русский язык [akira9]
работа со звуком [Гуннлауг]

Файл
Формат: MKV
Качество: HDTV 720p
Видео: 3000 kb/s, 1280х720
Аудио: AC3, 192 kb/s (2 ch)
Размер: ~ 536 MB

АНОНСЫ ПОПУЛЯРНЫХ РАЗДАЧ

Общее
Demon.Ward.2013.HDTV.720p.CINEMANIA1.mkv
Формат : Matroska
Версия формата : Version 4 / Version 2
Размер файла : 536 Мбайт
Продолжительность : 23 м.
Общий поток : 3158 Кбит/сек
Дата кодирования : UTC 2014-02-18 16:59:51
Программа кодирования : mkvmerge v6.2.0 ('Promised Land') built on Apr 28 2013 12:22:01
Библиотека кодирования : libebml v1.3.0 + libmatroska v1.4.0

Видео
Идентификатор : 1
Формат : AVC
Формат/Информация : Advanced Video Codec
Профиль формата : High@L4.1
Параметр CABAC формата : Да
Параметр ReFrames формата : 9 кадров
Идентификатор кодека : V_MPEG4/ISO/AVC
Продолжительность : 23 м.
Битрейт : 2964 Кбит/сек
Ширина : 1280 пикселей
Высота : 720 пикселей
Соотношение сторон : 16:9
Режим частоты кадров : Постоянный
Частота кадров : 29,970 кадров/сек
Цветовое пространство : YUV
Субдискретизация насыщенности : 4:2:0
Битовая глубина : 8 бит
Тип развёртки : Прогрессивная
Бит/(Пиксели*Кадры) : 0.107
Размер потока : 493 Мбайт (92%)
Библиотека кодирования : x264 core 133 r2334 a3ac64b
Настройки программы : cabac=1 / ref=9 / deblock=1:-3:-3 / analyse=0x3:0x133 / me=tesa / subme=11 / psy=1 / psy_rd=1.00:0.15 / mixed_ref=1 / me_range=48 / chroma_me=1 / trellis=2 / 8x8dct=1 / cqm=0 / deadzone=21,11 / fast_pskip=0 / chroma_qp_offset=-3 / threads=12 / lookahead_threads=2 / sliced_threads=0 / nr=0 / decimate=1 / interlaced=0 / bluray_compat=0 / constrained_intra=0 / bframes=8 / b_pyramid=2 / b_adapt=2 / b_bias=0 / direct=3 / weightb=1 / open_gop=0 / weightp=2 / keyint=300 / keyint_min=29 / scenecut=40 / intra_refresh=0 / rc_lookahead=40 / rc=2pass / mbtree=1 / bitrate=2964 / ratetol=1.0 / qcomp=0.60 / qpmin=0 / qpmax=69 / qpstep=4 / cplxblur=20.0 / qblur=0.5 / ip_ratio=1.40 / aq=1:1.00
Default : Да
Forced : Нет

Аудио
Идентификатор : 2
Формат : AC-3
Формат/Информация : Audio Coding 3
Расширение режима : CM (complete main)
Параметр Endianness формата : Big
Идентификатор кодека : A_AC3
Продолжительность : 23 м.
Вид битрейта : Постоянный
Битрейт : 192 Кбит/сек
Каналы : 2 канала
Расположение каналов : Front: L R
Частота : 48,0 КГц
Битовая глубина : 16 бит
Метод сжатия : С потерями
Размер потока : 32,6 Мбайт (6%)
Default : Да
Forced : Нет



Скачать Проклятая.палата.Демоническая.палата.Akuryo.Byoto.Demon.Ward.(сезон.01).(Норио.Цурута.Хаджиме.Такезоно.Ейске.Найто).[2013.ужасы.мистика.HDTV].[720p].[DVO(DeadSno.&.den904)].torrent без регистрации
Золото ЗОЛОТАЯ РАЗДАЧА! СКАЧАННОЕ НЕ ЗАСЧИТЫВАЕТСЯ! Золото
Дата: Зарегистрирован   [ Тип: внутренний ] Как тут cкачать?
MAGNET ссылка
MAGNET ссылка


Скачать .torrent

30 KB

Статус: проверено DHT
Скачан: торрент - 119 раз, раздача полностью - 18 раз
Размер: 5,75 GB
Оценка:  - (Голосов: 0)
Поблагодарили: 2
Поделиться ссылкой на эту раздачу с друзьями:
В контактеFacebookОдноклассникиTwitterLivejournalМой МирLiveinternet
 

 
Показать сообщения:    


Вы не можете начинать темы
Вы не можете отвечать на сообщения
Вы не можете редактировать свои сообщения
Вы не можете удалять свои сообщения
Вы не можете голосовать в опросах
Вы не можете прикреплять файлы к сообщениям
Вы можете скачивать файлы